Статистика раздачи
Размер:  1,45 GB   |    Зарегистрирован:  1 год 1 месяц   |    Скачан:  0 раз
DL-List: Нет

Полного источника не было: Никогда

 
     
 
 

serzh ®

Пол:
Не указан
Стаж:
1 год 4 месяца
Сообщений:
442

Только для твоих глаз / For Your Eyes Only
Страна: Великобритания
Жанр: Боевик, триллер, приключения
Год выпуска: 1981
Продолжительность: 02:07:59
Перевод: Одноголосый закадровый (Немецкий Дубляж)
Субтитры: нет
Режиссер: Джон Глен / John Glen
В ролях: Роджер Мур
Кароль Буке
Тополь
Линн-Холли Джонсон
Джулиан Гловер
Джилл Беннетт
Джон Уаймэн
Лоис Максуэлл
Десмонд Ллевелин
Уолтер Готелл
Описание: На этот раз агенту 007 предстоит захватывающая дух гонка с русскими коллегами. Дело в том, что Британские военные умудрились утопить в Ионическом море абсолютно секретное оборудование. Если аппаратура попадет в руки советским разведчикам, это может привести к ужасающим для Великобритании и всего мира последствиям. Бонду приходится с безумной скоростью прокатиться по трассе для бобслея, повисеть на одной руке над бездонной пропастью, участвовать в захватывающем дух подводном сражении с применением новейшего шпионского оружия. В этом непростом соревновании Бонду помогает великолепная красавица Милена, которая одинаково хорошо владеет боевым арбалетом и, что еще более опасно, искусством обольщения.
Доп. информация: За оцифрованную звуковую дорожку с VHS благодарим mars1574 , а также мне за синхрон дорожки...
Сэмпл: https://yadi.sk/i/gHfPbIcIOssU0w
Качество видео: HDRip
Формат видео: AVI
Видео: XviD , 720x304(2.37:1), 23.976 fps, 1 424 Kbps
Аудио: AC3 , 48 kHz , 192.00 kbps avg , 2/0 (L,R) ch

MediaInfo

Complete name Только для твоих глаз 1981 (VO).avi
Format : AVI
Format/Info : Audio Video Interleave
File size : 1.45 GiB
Duration : 2h 7mn
Overall bit rate : 1 625 Kbps
Writing library : VirtualDub build 35491/release
Video
ID : 0
Format : MPEG-4 Visual
Format profile : Advanced Simple@L5
Format settings, BVOP : 1
Format settings, QPel : No
Format settings, GMC : No warppoints
Format settings, Matrix : Custom
Codec ID : XVID
Codec ID/Hint : XviD
Duration : 2h 7mn
Bit rate : 1 424 Kbps
Width : 720 pixels
Height : 304 pixels
Display aspect ratio : 2.35:1
Frame rate : 23.976 (23976/1000) fps
Color space : YUV
Chroma subsampling : 4:2:0
Bit depth : 8 bits
Scan type : Progressive
Compression mode : Lossy
Bits/(Pixel*Frame) : 0.271
Stream size : 1.27 GiB (88%)
Writing library : XviD 73
Audio
ID : 1
Format : AC-3
Format/Info : Audio Coding 3
Mode extension : CM (complete main)
Format settings, Endianness : Big
Codec ID : 2000
Duration : 2h 7mn
Bit rate mode : Constant
Bit rate : 192 Kbps
Channel(s) : 2 channels
Channel positions : Front: L R
Sampling rate : 48.0 KHz
Frame rate : 31.250 fps (1536 spf)
Compression mode : Lossy
Stream size : 176 MiB (12%)
Alignment : Aligned on interleaves
Interleave, duration : 42 ms (1.00 video frame)
Interleave, preload duratio : 512 ms
[opentorrent.pro].t3664.torrent 
Торрент: Зарегистрирован [ 2019-06-15 16:09 ] · 2A8F241E548AAE92734E73CDAFBA0E299CA070BA

Скачать .torrent

Скачать

15 KB

Статус: проверено
Скачан: 0 раз
Размер: 1,45 GB  ·  Тип торрента
terms.php
Профиль [ЛС]
Показать сообщения:    

Текущее время: 10-Авг 03:10

Часовой пояс: UTC ± 0



Вы не можете начинать темы
Вы не можете отвечать на сообщения
Вы не можете редактировать свои сообщения
Вы не можете удалять свои сообщения
Вы не можете голосовать в опросах
Вы не можете прикреплять файлы к сообщениям
Вы можете скачивать файлы