Статистика раздачи
Размер:  1,46 GB   |    Зарегистрирован:  1 год   |    Скачан:  0 раз
DL-List: Нет

Полного источника не было: Никогда

 
     
 
 

солнышко ®

Пол:
Не указан
Стаж:
1 год 3 месяца
Сообщений:
723

Смерть Сталина / The Death of Stalin
Страна: Франция, Великобритания, Бельгия
Жанр: политическая сатира
Год выпуска: 2017
Продолжительность: 01:46:34
Перевод: Авторский (одноголосый закадровый) Юрий Сербин
Субтитры: нет
Режиссер: Армандо Ианнуччи / Armando Iannucci
В ролях: Ольга Куриленко, Андреа Райзборо, Руперт Френд, Джейсон Айзекс, Стив Бушеми, Джеффри Тэмбор, Ричард Брэйк, Пэдди Консидайн
Описание: Советский Союз восстанавливается после кровопролитной войны. Отстраиваются города, поднимаются дома буквально из руин. Памятники культуры обретают новую жизнь. Ничто не предвещает беды. Жители огромной страны живут в режиме жестокого правителя. И с этим уже многие смирились. Но приходит внезапная новость - великий вождь Сталин неожиданно умер. Многие обрадовались такому известию, ведь теперь возможно прекратятся постоянные ночные допросы, репрессии и аресты ни в чем не повинных людей. В лагерях томятся тысячи узников, которые надеяться на скорейшее освобождение в связи со смертью генсека Сталина. Однако, есть люди, которые очень огорчены уходом великого правителя в мир иной. А тем временем, в верхушке власти начинается новая война, теперь уже за почетное кресло правителя большого государства....

Сэмпл: http://multi-up.com/1234630
Качество видео: BDRip (Исходник BDRemux 1080p)
Формат видео: AVI
Видео: XviD 73, 720x384, (1,85:1), 24.000 fps, 1572 Кбит/с, 8 бит, 0.24 bit/pixel
Аудио: Русский (АС3, 6 ch (Front: L C R, Side: L R, LFE), 48,0 KHz, 384 Kbps

MediaInfo

Общее
Полное имя : D:\Фильмы на трекер\Смерть Сталина (политическая сатира 2017 год).avi
Формат : AVI
Формат/Информация : Audio Video Interleave
Размер файла : 1,46 Гбайт
Продолжительность : 1 ч. 46 м.
Общий поток : 1966 Кбит/сек
Программа кодирования : VirtualDubMod 1.5.10.3 | www.virtualdub-fr.org || (build 2550/release)
Библиотека кодирования : VirtualDubMod build 2550/release
Видео
Идентификатор : 0
Формат : MPEG-4 Visual
Профиль формата : Advanced Simple@L5
Параметр BVOP формата : 2
Параметр QPel формата : Нет
Параметр GMC формата : Без точки перехода
Параметр матрицы формата : Выборочная
Идентификатор кодека : XVID
Идентификатор кодека/Подсказка : XviD
Продолжительность : 1 ч. 46 м.
Битрейт : 1572 Кбит/сек
Ширина : 720 пикселей
Высота : 384 пикселя
Соотношение сторон : 1,85:1
Частота кадров : 24,000 кадра/сек
Цветовое пространство : YUV
Субдискретизация насыщенности : 4:2:0
Битовая глубина : 8 бит
Тип развёртки : Прогрессивная
Метод сжатия : С потерями
Бит/(Пиксели*Кадры) : 0.237
Размер потока : 1,17 Гбайт (80%)
Библиотека кодирования : XviD 73
Аудио
Идентификатор : 1
Формат : AC-3
Формат/Информация : Audio Coding 3
Расширение режима : CM (complete main)
Параметр Endianness формата : Big
Идентификатор кодека : 2000
Продолжительность : 1 ч. 46 м.
Вид битрейта : Постоянный
Битрейт : 384 Кбит/сек
Каналы : 6 каналов
Расположение каналов : Front: L C R, Side: L R, LFE
Частота : 48,0 КГц
Частота кадров : 31,250 кадров/сек (1536 spf)
Метод сжатия : С потерями
Размер потока : 293 Мбайт (20%)
Выравнивание : Разделение по промежуткам
Продолжительность промежутка : 42 мс. (1,00 видеокадр)
Время предзагрузки промежутка : 500 мс.

Скриншот c названием фильма

Скриншоты

[opentorrent.pro].t3666.torrent 
Торрент: Зарегистрирован [ 2019-06-15 16:09 ] · 2AA64F1E9E69AB964C7700FFEB399A52F0C22BCC

Скачать .torrent

Скачать

15 KB

Статус: проверено
Скачан: 0 раз
Размер: 1,46 GB  ·  Тип торрента
terms.php
Профиль [ЛС]
Показать сообщения:    

Текущее время: 02-Июл 09:41

Часовой пояс: UTC ± 0



Вы не можете начинать темы
Вы не можете отвечать на сообщения
Вы не можете редактировать свои сообщения
Вы не можете удалять свои сообщения
Вы не можете голосовать в опросах
Вы не можете прикреплять файлы к сообщениям
Вы можете скачивать файлы