Статистика раздачи
Размер:  1,64 GB   |    Зарегистрирован:  11 месяцев 8 дней   |    Скачан:  0 раз
DL-List: Нет

Полного источника не было: Никогда

 
     
 
 

Гость ®

Пол:
Не указан

-Одиноким предоставляется общежитие- Жанр: Мелодрама, комедия
Год выпуска: 1983
Продолжительность: 01:23:46-Субтитры: русские (полные) ВГТРК-Режиссер: Самсон Самсонов-В ролях: Наталья Гундарева, Александр Михайлов, Тамара Сёмина, Фрунзик Мкртчян, Елена Драпеко, Виктор Павлов, Татьяна Божок, Татьяна Агафонова, Елена Майорова, Вера Трофимова, Елена Скороходова, Людмила Коныгина, Елена Антонова, Мария Скворцова, Людмила Шевель, Владимир Симонов-Описание: В общежитие ткачих комендантом направляется бывший моряк. Он сразу же узнает, что душой вверенного ему коллектива является Вера Голубева, занимающаяся устройством личной жизни своих подруг. «Сваха» по призванию, она организовала нечто вроде бесплатного брачного агентства, собирая данные о потенциальных женихах со всей страны. Между Верой и новым комендантом отношения поначалу не складываются. Но потом он влюбляется в эту обаятельную и деятельную женщину. Однажды в свадебной машине будут и они с Верой…-Доп. информация:
Производство: "Мосфильм", СССР, 1983 г.
Сценарист: Аркадий Инин
Оператор: Виктор Якушев
Композитор: Евгений Дога
Художник: Пётр Киселёв- -Качество видео: DVB
Формат видео: MKV
Видео кодек: H.264
Аудио кодек: MP2
Видео: 720@1047x576 анаморф (16:9), 25 fps, ~2549 kbps, 0.246 bit/pixel
Аудио: 48 kHz, 2 channels (dual mono), ~192 kbps
Формат субтитров: softsub (SRT), вшиты в контейнер-

MediaInfo

Общее
Уникальный идентификатор : 215173837300635496218490757463284880263 (0xA1E0F9412A6D2F479CB35D8F6A1F9387)
Полное имя : C:\Torrent\Одиноким предоставляется общежитие.1983.DVB\Одиноким предоставляется общежитие.1983.DVB.Sub.mkv
Формат : Matroska
Версия формата : Version 4 / Version 2
Размер файла : 1,64 Гбайт
Продолжительность : 1 ч. 23 м.
Общий поток : 2796 Кбит/сек
Дата кодирования : UTC 2019-06-13 13:28:53
Программа кодирования : mkvmerge v6.1.0 ('Old Devil') built on Mar 4 2013 09:10:42
Библиотека кодирования : libebml v1.3.0 + libmatroska v1.4.0
Видео
Идентификатор : 1
Формат : AVC
Формат/Информация : Advanced Video Codec
Профиль формата : Main@L3
Параметр CABAC формата : Да
Параметр ReFrames формата : 4 кадра
Параметр GOP формата : M=4, N=28
Идентификатор кодека : V_MPEG4/ISO/AVC
Продолжительность : 1 ч. 23 м.
Битрейт : 2549 Кбит/сек
Ширина : 720 пикселей
Высота : 576 пикселей
Соотношение сторон : 16:9
Режим частоты кадров : Постоянный
Частота кадров : 25,000 кадров/сек
Стандарт вещания : Component
Цветовое пространство : YUV
Субдискретизация насыщенности : 4:2:0
Битовая глубина : 8 бит
Тип развёртки : Чересстрочная
Метод сохранения типа развёртки : Раздельные поля
Порядок развёртки : Верхнее поле первое
Бит/(Пиксели*Кадры) : 0.246
Размер потока : 1,49 Гбайт (91%)
Default : Да
Forced : Нет
Цветовой диапазон : Limited
Основные цвета : BT.601 PAL
Характеристики трансфера : BT.470 System B, BT.470 System G
Коэффициенты матрицы : BT.601
Аудио
Идентификатор : 2
Формат : MPEG Audio
Версия формата : Version 1
Профиль формата : Layer 2
Идентификатор кодека : A_MPEG/L2
Идентификатор кодека/Подсказка : MP2
Продолжительность : 1 ч. 23 м.
Вид битрейта : Постоянный
Битрейт : 192 Кбит/сек
Каналы : 2 канала
Частота : 48,0 КГц
Метод сжатия : С потерями
Размер потока : 115 Мбайт (7%)
Язык : Russian
Default : Да
Forced : Нет
Текст
Идентификатор : 3
Формат : UTF-8
Идентификатор кодека : S_TEXT/UTF8
Идентификатор кодека/Информация : UTF-8 Plain Text
Заголовок : Rus Sub (ВГТРК)
Язык : Russian
Default : Нет
Forced : Нет

Сравнения

В DVB с Культуры нет всплывающей рекламы и логотипов каналов на изображении фильма; не так зелен, как HDTVRip-AVC. На DVD качество намного хуже.DVB:

DVD5:

HDTVRip-AVC:

SATRip-AVC:
[opentorrent.pro].t3671.torrent 
Торрент: Зарегистрирован [ 2019-06-16 16:33 ] · 5039486AEBE8B7C3DA75336C9BB4A9EEB094BB19

Скачать .torrent

Скачать

9 KB

Статус: проверено
Скачан: 0 раз
Размер: 1,64 GB  ·  Тип торрента
terms.php
Показать сообщения:    

Текущее время: 24-Май 21:36

Часовой пояс: UTC ± 0



Вы не можете начинать темы
Вы не можете отвечать на сообщения
Вы не можете редактировать свои сообщения
Вы не можете удалять свои сообщения
Вы не можете голосовать в опросах
Вы не можете прикреплять файлы к сообщениям
Вы можете скачивать файлы