Статистика раздачи
Размер:  1,46 GB   |    Зарегистрирован:  1 год 1 месяц   |    Скачан:  0 раз
DL-List: Нет
Сидов:  66  [  0 KB/s  ]   Личеров:  2  [  0 KB/s  ]  
 
     
 
 

Гость ®

Пол:
Не указан

Крымский мост. Сделано с любовью!
Жанр: комедия, мелодрама
Год выпуска: 2018
Продолжительность: 01:36:13
Режиссёр: Тигран Кеосаян
В ролях: Алексей Демидов, Катерина Шпица, Артём Ткаченко, Сергей Никоненко, Юрий Стоянов, Ирина Розанова, Сергей Газаров, Алёна Хмельницкая, Лаура Кеосаян, Александр Ильин ст.

Описание: Жаркое лето и ласковое море — в Керчи строится Крымский мост. У Димы — молодого и дерзкого строителя — есть хобби: из каждой смены студенток-археологов выбрать самую красивую и именно ее завоевать. И в этот раз случилось бы так же, если бы не московский пиарщик. Он привез на стройку телевизионщиков из Америки, и, конечно, именно он — роскошный карьерист на белом кабриолете — покорит сердце Вари. Или нет? Пока два соперника наперегонки очаровывают её, горячий кавказец Берик (по паспорту Бернард!) пытается реализовать свою мечту — жениться на американке и уехать в Голливуд.

Кинопоиск
Sample
Качество видео: HDTVRip
Формат видео: AVI
Видео: 720x400 (1.80:1), 25 fps, XviD build 73 ~1972 kbps avg, 0.27 bit/pixel
Аудио: 48 kHz, AC3 Dolby Digital, 2/0 (L,R) ch, ~192 kbps

MediaInfo

General
Complete name : D:\Krymskij.most.Sdelano.s.lyubov'yu!.2018.HDTVRip.avi
Format : AVI
Format/Info : Audio Video Interleave
File size : 1.46 GiB
Duration : 1 h 36 min
Overall bit rate : 2 175 kb/s
Writing application : VirtualDubMod 1.5.10.3 | www.virtualdub-fr.org || (build 2550/release)
Writing library : VirtualDubMod build 2550/release
Video
ID : 0
Format : MPEG-4 Visual
Format profile : Advanced Simple@L5
Format settings : BVOP1
Format settings, BVOP : 1
Format settings, QPel : No
Format settings, GMC : No warppoints
Format settings, Matrix : Default (MPEG)
Codec ID : XVID
Codec ID/Hint : XviD
Duration : 1 h 36 min
Bit rate : 1 973 kb/s
Width : 720 pixels
Height : 400 pixels
Display aspect ratio : 16:9
Frame rate : 25.000 FPS
Color space : YUV
Chroma subsampling : 4:2:0
Bit depth : 8 bits
Scan type : Progressive
Compression mode : Lossy
Bits/(Pixel*Frame) : 0.274
Stream size : 1.33 GiB (91%)
Writing library : XviD 73
Audio
ID : 1
Format : AC-3
Format/Info : Audio Coding 3
Codec ID : 2000
Duration : 1 h 36 min
Bit rate mode : Constant
Bit rate : 192 kb/s
Channel(s) : 2 channels
Channel positions : Front: L R
Sampling rate : 48.0 kHz
Frame rate : 31.250 FPS (1536 SPF)
Bit depth : 16 bits
Compression mode : Lossy
Stream size : 132 MiB (9%)
Alignment : Split accross interleaves
Interleave, duration : 40 ms (1.00 video frame)
Interleave, preload duratio : 500 ms
Service kind : Complete Main

Скриншоты



[opentorrent.pro].t3672.torrent 
Торрент: Зарегистрирован [ 2019-06-16 16:33 ] · 9C1ED2AE85793C1219202672960B6CCA2EF1573E

Скачать .torrent

Скачать

15 KB

Статус: проверено
Скачан: 0 раз
Размер: 1,46 GB  ·  Тип торрента
terms.php
Показать сообщения:    

Текущее время: 08-Авг 17:17

Часовой пояс: UTC ± 0



Вы не можете начинать темы
Вы не можете отвечать на сообщения
Вы не можете редактировать свои сообщения
Вы не можете удалять свои сообщения
Вы не можете голосовать в опросах
Вы не можете прикреплять файлы к сообщениям
Вы можете скачивать файлы