Статистика раздачи
Размер:  745 MB   |    Зарегистрирован:  11 месяцев 8 дней   |    Скачан:  0 раз
DL-List: Нет
Сидов:  2  [  0 KB/s  ]  
 
     
 
 

Гость ®

Пол:
Не указан

-Пилигрим-- -Жанр: триллер
Год выпуска: 2018
Продолжительность: 01:37:09-Режиссёр: Александр Баршак-В ролях: Игорь Петренко, Елена Север, Алексей Серебряков, Владимир Ильин, Татьяна Васильева, Анна Банщикова, Дмитрий Мухамадеев, Дмитрий Куличков, Сергей Беляев, Павел Кузьмин-Описание: В жизни Миры всё замечательно: она — владелица модной галереи, дома ждёт любящий муж. Но однажды на берегу моря находят мужчину с амнезией, который помнит её имя. Никто не знает, кто он. Его нет ни в одной базе данных. Но он знает о ней то, что может знать только очень близкий человек, хотя Мира ни разу в жизни его не видела. Благополучный мир Миры начинает разрушаться, когда выясняется, что неизвестный провёл несколько лет на Ближнем Востоке и за ним идёт настоящая охота.- - -Качество видео: WEB-DLRip-AVC / WEB-DL 1080p
Формат видео: MKV-Видео: MPEG-4 AVC, 764x320 (2.40:1), 24.000 fps, ~880 kbps avg, 0.150 bit/pixel
Аудио: 48 kHz, AC3 Dolby Digital, 2/0 (L,R) ch, ~192 kbps avg-

MediaInfo

Код:Complete name : D:\Раздача\Пилигрим (2019) WEB-DLRip-AVC_ivanes.mkv
Format : Matroska
Format version : Version 2
File size : 745 MiB
Duration : 1 h 37 min
Overall bit rate : 1 072 kb/s
Movie name : Пилигрим (2019) WEB-DLRip-AVC_ivanes
Encoded date : UTC 2019-06-14 22:49:20
Writing application : mkvmerge v4.4.0 ('Die Wiederkehr') сборка от Jan 3 2011 21:40:45
Writing library : libebml v1.0.0 + libmatroska v1.0.0
Cover : Yes
Attachments : cover.jpg
Video
ID : 1
Format : AVC
Format/Info : Advanced Video Codec
Format profile : High@L4.1
Format settings, CABAC : Yes
Format settings, RefFrames : 11 frames
Codec ID : V_MPEG4/ISO/AVC
Duration : 1 h 37 min
Bit rate : 880 kb/s
Width : 764 pixels
Height : 320 pixels
Display aspect ratio : 2.40:1
Frame rate mode : Constant
Frame rate : 24.000 FPS
Color space : YUV
Chroma subsampling : 4:2:0
Bit depth : 8 bits
Scan type : Progressive
Bits/(Pixel*Frame) : 0.150
Stream size : 597 MiB (80%)
Title : Rip by ivanes
Writing library : x264 core 157 r2969 d4099dd
Encoding settings : cabac=1 / ref=11 / deblock=1:-3:-3 / analyse=0x3:0x113 / me=umh / subme=10 / psy=1 / psy_rd=1.00:0.00 / mixed_ref=1 / me_range=32 / chroma_me=1 / trellis=2 / 8x8dct=1 / cqm=0 / deadzone=21,11 / fast_pskip=0 / chroma_qp_offset=-2 / threads=12 / lookahead_threads=2 / sliced_threads=0 / nr=0 / decimate=1 / interlaced=0 / bluray_compat=0 / constrained_intra=0 / bframes=13 / b_pyramid=2 / b_adapt=2 / b_bias=0 / direct=1 / weightb=1 / open_gop=0 / weightp=2 / keyint=240 / keyint_min=24 / scenecut=40 / intra_refresh=0 / rc_lookahead=60 / rc=2pass / mbtree=0 / bitrate=880 / ratetol=1.0 / qcomp=0.60 / qpmin=0 / qpmax=69 / qpstep=4 / cplxblur=20.0 / qblur=0.5 / vbv_maxrate=50000 / vbv_bufsize=62500 / nal_hrd=none / filler=0 / ip_ratio=1.40 / pb_ratio=1.30 / aq=1:1.00
Default : Yes
Forced : No
Statistics Tags Issue : mkvmerge v10.0.0 ('To Drown In You') 64bit 2019-06-14 22:34:00 / mkvmerge v4.4.0 ('Die Wiederkehr') сборка от Jan 3 2011 21:40:45 2019-06-14 22:49:20
FromStats_BitRate : 878269
FromStats_Duration : 01:37:09.584000000
FromStats_FrameCount : 139910
FromStats_StreamSize : 639993311
Audio
ID : 2
Format : AC-3
Format/Info : Audio Coding 3
Format settings, Endianness : Big
Codec ID : A_AC3
Duration : 1 h 37 min
Bit rate mode : Constant
Bit rate : 192 kb/s
Channel(s) : 2 channels
Channel positions : Front: L R
Sampling rate : 48.0 kHz
Frame rate : 31.250 FPS (1536 SPF)
Bit depth : 16 bits
Compression mode : Lossy
Stream size : 133 MiB (18%)
Language : Russian
Service kind : Complete Main
Default : Yes
Forced : No

Скриншоты

[opentorrent.pro].t3678.torrent 
Торрент: Зарегистрирован [ 2019-06-16 16:33 ] · 33C6A206A1B492BE4366865CAFE2F76CF988092D

Скачать .torrent

Скачать

15 KB

Статус: проверено
Скачан: 0 раз
Размер: 745 MB  ·  Тип торрента
terms.php
Показать сообщения:    

Текущее время: 25-Май 01:36

Часовой пояс: UTC ± 0



Вы не можете начинать темы
Вы не можете отвечать на сообщения
Вы не можете редактировать свои сообщения
Вы не можете удалять свои сообщения
Вы не можете голосовать в опросах
Вы не можете прикреплять файлы к сообщениям
Вы можете скачивать файлы