Статистика раздачи
Размер:  1,46 GB   |    Зарегистрирован:  1 год 1 месяц   |    Скачан:  0 раз
DL-List: Нет
Сидов:  2778  [  0 KB/s  ]   Личеров:  81  [  0 KB/s  ]  
 
     
 
 

Гость ®

Пол:
Не указан

Загадочное убийство / Murder Mystery
Страна: США
Жанр: комедия, детектив
Год выпуска: 2019
Продолжительность: 01:37:00-Перевод: Профессиональный (дублированный) | Пифагор
Субтитры: русские (forced)
Оригинальная аудиодорожка: нет-Режиссер: Кайл Ньюачек / Kyle Newacheck-В ролях: Адам Сэндлер, Дженнифер Энистон, Люк Эванс, Джемма Артертон, Джеки Сэндлер, Оулавюр Дарри Оулафссон, Джон Кани, Теренс Стэмп, Сиори Куцуна, Элен Кардона, Дэвид Уоллиамс, Адиль Ахтар, Суфе Брэдшоу, Пилар Холлэнд, Хелена Мари Патт, Роуз Мария Вильде-Описание: Чтобы оживить семейные отношения полицейский из Нью-Йорка вместе со своей женой отправляются в путешествие по Европе. В самолете они знакомятся с богатым пожилым мужчиной, который приглашает их на свою роскошную яхту. Но там его убивают, а они становятся главными подозреваемыми...- -Качество видео: WEB-DLRip
Формат видео: AVI
Видео: 704x352 (2.00:1), 24.000 fps, XviD build 73 ~1675 kbps avg, 0.28 bit/pixel
Аудио: 48 kHz, AC3 Dolby Digital, 3/2 (L,C,R,l,r) + LFE ch, ~448 kbps-Сэмпл-

MediaInfo

Код:Формат : AVI
Формат/Информация : Audio Video Interleave
Размер файла : 1,46 Гбайт
Продолжительность : 1 ч. 37 м.
Общий поток : 2133 Кбит/сек
Название фильма : Загадочное убийство_2019_WEB-DLRip
Программа кодирования : VirtualDubMod 1.5.10.3 | www.virtualdub-fr.org || (build 2550/release)
Авторское право : порошков
Видео
Идентификатор : 0
Формат : MPEG-4 Visual
Профиль формата : Advanced Simple@L5
Настройки формата : BVOP1 / Custom Matrix
Параметр BVOP формата : 1
Параметр QPel формата : Нет
Параметр GMC формата : Без точки перехода
Параметр матрицы формата : Выборочная
Идентификатор кодека : XVID
Идентификатор кодека/Подсказка : XviD
Продолжительность : 1 ч. 37 м.
Битрейт : 1675 Кбит/сек
Ширина : 704 пикселя
Высота : 352 пикселя
Соотношение сторон : 2,000
Частота кадров : 24,000 кадра/сек
Цветовое пространство : YUV
Субдискретизация насыщенности : 4:2:0
Битовая глубина : 8 бит
Тип развёртки : Прогрессивная
Метод сжатия : С потерями
Бит/(Пиксели*Кадры) : 0.282
Размер потока : 1,14 Гбайт (79%)
Библиотека кодирования : XviD 73
Аудио
Идентификатор : 1
Формат : AC-3
Формат/Информация : Audio Coding 3
Коммерческое название : Dolby Digital
Идентификатор кодека : 2000
Продолжительность : 1 ч. 37 м.
Вид битрейта : Постоянный
Битрейт : 448 Кбит/сек
Каналы : 6 каналов
ChannelLayout : L R C LFE Ls Rs
Частота : 48,0 КГц
Частота кадров : 31,250 кадров/сек (1536 SPF)
Битовая глубина : 16 бит
Метод сжатия : С потерями
Размер потока : 313 Мбайт (21%)
Выравнивание : Разделение по промежуткам
Продолжительность промежутка : 42 мс. (1,00 видеокадр)
Время предзагрузки промежутка : 500 мс.
ServiceKind/String : Complete Main

Скриншоты


[opentorrent.pro].t3681.torrent 
Торрент: Зарегистрирован [ 2019-06-16 16:33 ] · 5C06BF2F3CA5ACD6B268E70683695E314996ED9C

Скачать .torrent

Скачать

15 KB

Статус: проверено
Скачан: 0 раз
Размер: 1,46 GB  ·  Тип торрента
terms.php
Показать сообщения:    

Текущее время: 08-Авг 17:28

Часовой пояс: UTC ± 0



Вы не можете начинать темы
Вы не можете отвечать на сообщения
Вы не можете редактировать свои сообщения
Вы не можете удалять свои сообщения
Вы не можете голосовать в опросах
Вы не можете прикреплять файлы к сообщениям
Вы можете скачивать файлы