Статистика раздачи
Размер:  745 MB   |    Зарегистрирован:  11 месяцев 16 дней   |    Скачан:  0 раз
DL-List: Нет

Полного источника не было: Никогда

 
     
 
 

солнышко ®

Пол:
Не указан
Стаж:
1 год 2 месяца
Сообщений:
723

Точка невозврата / High Wire Act / Beirut
Страна: США
Жанр: триллер, драма, криминал
Год выпуска: 2018
Продолжительность: 01:49:45
Перевод: Профессиональный (дублированный) iTunes
Субтитры: нет
Режиссер: Брэд Андерсон / Brad Anderson
В ролях: Джон Хэмм
Розамунд Пайк
Дин Норрис
Шей Уигэм
Ларри Пайн
Марк Пеллегрино
Идир Чендер
Бен Эффан
Лейла Бехти
Алон Абутбул
Описание: Разгар Ливанской войны. Интриги, предательство, грязные компроматы, нравственное падение, жертвенность и любовь, боль и надежда… На руках героя умирает жена, подстреленная террористами. Через десять лет он, преодолев ненависть и отчаяние, возвращается в Бейрут, чтобы вызволить давнего друга, захваченного в плен боевиками.
Доп. информация: https://www.kinopoisk.ru/film/924167/
Сэмпл: http://sendfile.su/1500524
Качество видео: HDRip найден в сети
Формат видео: AVI
Видео: 688x288 (2.39:1), 23.976 fps, XviD build 73 ~815 kbps avg, 0.17 bit/pixel
Аудио: 48 kHz, MPEG Layer 3, 2 ch, ~128.00 kbps avg

MediaInfo

General
Complete name : D:\High.Wire.Act.2018.745MB.MegaPeer.avi
Format : AVI
Format/Info : Audio Video Interleave
File size : 745 MiB
Duration : 1h 49mn
Overall bit rate : 949 Kbps
Video
ID : 0
Format : MPEG-4 Visual
Format profile : Advanced Simple@L5
Format settings, BVOP : 1
Format settings, QPel : No
Format settings, GMC : No warppoints
Format settings, Matrix : Custom
Codec ID : XVID
Codec ID/Hint : XviD
Duration : 1h 49mn
Bit rate : 815 Kbps
Width : 688 pixels
Height : 288 pixels
Display aspect ratio : 2.40:1
Frame rate : 23.976 fps
Color space : YUV
Chroma subsampling : 4:2:0
Bit depth : 8 bits
Scan type : Progressive
Compression mode : Lossy
Bits/(Pixel*Frame) : 0.172
Stream size : 640 MiB (86%)
Writing library : XviD 73
Audio
ID : 1
Format : MPEG Audio
Format version : Version 1
Format profile : Layer 3
Codec ID : 55
Codec ID/Hint : MP3
Duration : 1h 49mn
Bit rate mode : Constant
Bit rate : 128 Kbps
Channel count : 2 channels
Sampling rate : 48.0 KHz
Compression mode : Lossy
Stream size : 100 MiB (13%)
Alignment : Aligned on interleaves
Interleave, duration : 167 ms (4.00 video frames)
Interleave, preload duration : 216 ms
Writing library : LAME3.99r
Encoding settings : -m s -V 4 -q 2 -lowpass 17 -b 128

Скриншот c названием фильма

Скриншоты

[opentorrent.pro].t3691.torrent 
Торрент: Зарегистрирован [ 2019-06-16 16:33 ] · F17C1BD944C39EA6CD8F2175FE0035C485EA04DE

Скачать .torrent

Скачать

15 KB

Статус: проверено
Скачан: 0 раз
Размер: 745 MB  ·  Тип торрента
terms.php
Профиль [ЛС]
Показать сообщения:    

Текущее время: 02-Июн 23:33

Часовой пояс: UTC ± 0



Вы не можете начинать темы
Вы не можете отвечать на сообщения
Вы не можете редактировать свои сообщения
Вы не можете удалять свои сообщения
Вы не можете голосовать в опросах
Вы не можете прикреплять файлы к сообщениям
Вы можете скачивать файлы