Статистика раздачи
Размер:  1,44 GB   |    Зарегистрирован:  11 месяцев 14 дней   |    Скачан:  0 раз
DL-List: Нет

Полного источника не было: Никогда

 
     
 
 

serzh ®

Пол:
Не указан
Стаж:
1 год 2 месяца
Сообщений:
442

Вой / The Howling
Страна: США
Жанр: Ужасы
Год выпуска: 1981
Продолжительность: 01:30:46
Перевод: Одноголосый закадровый Сергей Белов (Зереницын)
Субтитры: нет
Режиссер: Джо Данте / Joe Dante
В ролях: Ди Уоллес-Стоун, Патрик Макни, Дэннис Дуган, Кристофер Стоун, Белинда Бэласки, Кевин МакКарти, Джон Кэррадайн, Слим Пикенс, Элизабет Брукс, Роберт Пикардо
Описание: Тележурналистка Карен Уэст пошла на опасный эксперимент - встречу с маньяком-убийцей. Тот был застрелен полицией во время свидания. Происшедшее повергло Карен в шок, и она совершенно не помнила, что тогда случилось - только обрывки, вспыхивающие в кошмарных снах. Доктор, к которому она обратилась, порекомендовал ей провести недельку за городом, в компании таких же реабилитирующих психику пациентов. Реабилитационный центр располагался в жутковатом местечке - чащоба, туманы и странный вой по ночам. Все пациенты оказались оборотнями, среди них - и сбежавший из морга убитый маньяк. Именно свое звериное обличье он хотел показать Карен, когда назначал встречу.
Доп. информация: Дорожка с С. Беловым синхронизирована и наложена ale_x2008 при помощи Sony Vegas и VirtualDubMod.
За предоставленную дорожку благодарим - m.mamichev
Исправлено перегруженное аудио (-4 db)

Релиз
Сэмпл: https://yadi.sk/i/odujIQKp3QTWqo
Качество видео: HDRip
Формат видео: AVI
Видео: 720x384 (1.88:1), 23.976 fps, XviD MPEG-4 ~2072 kbps avg, 0.31 bit/pixel
Аудио: AC3 Dolby Digital, 48000Hz 2/0 (L,R) ch (mono), 192 kbps avg

MediaInfo

Вой - The Howling (by ale_x2008).avi
Format : AVI
Format/Info : Audio Video Interleave
File size : 1.44 GiB
Duration : 1 h 30 min
Overall bit rate : 2 275 kb/s
Movie name : Вой - The Howling (by ale_x2008)
Director : by ale_X2008
Writing application : VirtualDubMod 1.5.10.2 (build 2540/release)
Copyright : Edich2
Comment : RuTracker.org
Video
ID : 0
Format : MPEG-4 Visual
Format profile : Advanced Simple@L5
Format settings : BVOP2
Format settings, BVOP : 2
Format settings, QPel : No
Format settings, GMC : No warppoints
Format settings, Matrix : Default (H.263)
Codec ID : XVID
Codec ID/Hint : XviD
Duration : 1 h 30 min
Bit rate : 2 073 kb/s
Width : 720 pixels
Height : 384 pixels
Display aspect ratio : 1.85:1
Frame rate : 23.976 (24000/1001) FPS
Color space : YUV
Chroma subsampling : 4:2:0
Bit depth : 8 bits
Scan type : Progressive
Compression mode : Lossy
Bits/(Pixel*Frame) : 0.313
Stream size : 1.31 GiB (91%)
Writing library : XviD 1.2.1 (UTC 2008-12-04)
Audio
ID : 1
Format : AC-3
Format/Info : Audio Coding 3
Codec ID : 2000
Duration : 1 h 30 min
Bit rate mode : Constant
Bit rate : 192 kb/s
Channel(s) : 2 channels
Channel positions : Front: L R
Sampling rate : 48.0 kHz
Frame rate : 31.250 FPS (1536 SPF)
Bit depth : 16 bits
Compression mode : Lossy
Stream size : 125 MiB (8%)
Alignment : Split accross interleaves
Interleave, duration : 42 ms (1.00 video frame)
Interleave, preload duratio : 500 ms
Service kind : Complete Main

Скриншоты


[opentorrent.pro].t3693.torrent 
Торрент: Зарегистрирован [ 2019-06-16 16:33 ] · 6E005763DB472EE832626E7DC762C263A05782AE

Скачать .torrent

Скачать

15 KB

Статус: проверено
Скачан: 0 раз
Размер: 1,44 GB  ·  Тип торрента
terms.php
Профиль [ЛС]
Показать сообщения:    

Текущее время: 31-Май 05:56

Часовой пояс: UTC ± 0



Вы не можете начинать темы
Вы не можете отвечать на сообщения
Вы не можете редактировать свои сообщения
Вы не можете удалять свои сообщения
Вы не можете голосовать в опросах
Вы не можете прикреплять файлы к сообщениям
Вы можете скачивать файлы