Статистика раздачи
Размер:  1,46 GB   |    Зарегистрирован:  1 год 1 месяц   |    Скачан:  0 раз
DL-List: Нет

Полного источника не было: Никогда

 
     
 
 

солнышко ®

Пол:
Не указан
Стаж:
1 год 4 месяца
Сообщений:
720

Операция «Колибри» / The Hummingbird Project
Страна: Бельгия
Жанр: триллер
Год выпуска: 2018
Продолжительность: 01:50:24-Перевод: Профессиональный (многоголосый закадровый) | СВ Студия | ненормативная лексика
Субтитры: нет
Оригинальная аудиодорожка: нет-Режиссер: Ким Нгуйен / Kim Nguyen-В ролях: Джесси Айзенберг, Александр Скарсгард, Сальма Хайек, Майкл Мэндо, Йохан Хелденберг, Аиша Исса, Марк Слэк, Сара Голдберг, Фрэнк Скорпион, Кваси Сонгуи-Описание: Двоюродные братья Винсент и Антон живут в мире высокочастотного трейдинга, где каждая миллисекунда может стоить миллиарды. Они решаются реализовать давно задуманный проект. Казалось бы, все продумано до мелочей и шансы на успех велики как никогда. Однако на пути братьев встает их бывший босс Эва Торрес - беспринципный злой гений, ставшая их заклятым врагом. Ставки высоки, проигравший теряет всё или, наоборот, приобретает нечто большее, поистине бесценное.- -Качество видео: WEB-DLRip
Формат видео: AVI
Видео: 720x304 (2.37:1), 24.000 fps, XviD build 73 ~1499 kbps avg, 0.28 bit/pixel
Аудио: 48 kHz, AC3 Dolby Digital, 3/2 (L,C,R,l,r) + LFE ch, ~384 kbps-Сэмпл-

MediaInfo

Код:Формат : AVI
Формат/Информация : Audio Video Interleave
Размер файла : 1,46 Гбайт
Продолжительность : 1 ч. 50 м.
Общий поток : 1893 Кбит/сек
Название фильма : Операция «Колибри»_2018_WEB-DLRip
Программа кодирования : VirtualDubMod 1.5.10.3 | www.virtualdub-fr.org || (build 2550/release)
Авторское право : порошков
Видео
Идентификатор : 0
Формат : MPEG-4 Visual
Профиль формата : Advanced Simple@L5
Настройки формата : BVOP1 / Custom Matrix
Параметр BVOP формата : 1
Параметр QPel формата : Нет
Параметр GMC формата : Без точки перехода
Параметр матрицы формата : Выборочная
Идентификатор кодека : XVID
Идентификатор кодека/Подсказка : XviD
Продолжительность : 1 ч. 50 м.
Битрейт : 1499 Кбит/сек
Ширина : 720 пикселей
Высота : 304 пикселя
Соотношение сторон : 2,35:1
Частота кадров : 24,000 кадра/сек
Цветовое пространство : YUV
Субдискретизация насыщенности : 4:2:0
Битовая глубина : 8 бит
Тип развёртки : Прогрессивная
Метод сжатия : С потерями
Бит/(Пиксели*Кадры) : 0.285
Размер потока : 1,16 Гбайт (79%)
Библиотека кодирования : XviD 73
Аудио
Идентификатор : 1
Формат : AC-3
Формат/Информация : Audio Coding 3
Коммерческое название : Dolby Digital
Идентификатор кодека : 2000
Продолжительность : 1 ч. 50 м.
Вид битрейта : Постоянный
Битрейт : 384 Кбит/сек
Каналы : 6 каналов
ChannelLayout : L R C LFE Ls Rs
Частота : 48,0 КГц
Частота кадров : 31,250 кадров/сек (1536 SPF)
Битовая глубина : 16 бит
Метод сжатия : С потерями
Размер потока : 303 Мбайт (20%)
Выравнивание : Разделение по промежуткам
Продолжительность промежутка : 42 мс. (1,00 видеокадр)
Время предзагрузки промежутка : 500 мс.
ServiceKind/String : Complete Main

Скриншоты


[opentorrent.pro].t3694.torrent 
Торрент: Зарегистрирован [ 2019-06-16 16:33 ] · BA9ACAD4479F12753168C690392CD2F46EA0E36F

Скачать .torrent

Скачать

15 KB

Статус: проверено
Скачан: 0 раз
Размер: 1,46 GB  ·  Тип торрента
terms.php
Профиль [ЛС]
Показать сообщения:    

Текущее время: 07-Авг 03:02

Часовой пояс: UTC ± 0



Вы не можете начинать темы
Вы не можете отвечать на сообщения
Вы не можете редактировать свои сообщения
Вы не можете удалять свои сообщения
Вы не можете голосовать в опросах
Вы не можете прикреплять файлы к сообщениям
Вы можете скачивать файлы