Статистика раздачи
Размер:  1,46 GB   |    Зарегистрирован:  1 год 1 месяц   |    Скачан:  0 раз
DL-List: Нет

Полного источника не было: Никогда

 
     
 
 

serzh ®

Пол:
Не указан
Стаж:
1 год 4 месяца
Сообщений:
442

Рокки 3 / Rocky III
Год выпуска: 1982
Страна: США
Жанр: драма, спорт
Продолжительность: 01:39:38
Перевод: Профессиональный (многоголосый закадровый) - ОРТ
Перевод 2: Профессиональный (многоголосый закадровый) - НТВ / СТС / Перец
Субтитры: нет
Режиссер: Сильвестр Сталлоне / Sylvester Stallone
В ролях: Сильвестр Сталлоне / Rocky, Мистер Ти / Clubber Lang, Талия Шайр / Adrian, Берт Янг / Paulie, Карл Уэзерс / Apollo, Бёрджесс Мередит / Mickey, Халк Хоган / Thunderlips-Мировая премьера: 24 мая 1982-Описание: Три года минуло с момента второй победы боксера Рокки Бальбоа над чемпионом мира в тяжелом весе Апполо Кридом. Теперь Рокки богат и знаменит. Время от времени он выступает на ринге, но все чаще подумывает уйти из бокса. И вот, его вызывает на бой молодой и высокомерный боксер Клаббер Лэнг с внешностью и повадками настоящего головореза. Мики, тренер Рокки, категорически против: он знает, что тот не в лучшей форме. Но Рокки принимает вызов и проигрывает. Теперь Лэнг - новый чемпион мира. Рокки впадает в глубокую депрессию. В него больше не верит никто, кроме одного человека – экс-чемпиона Апполо Крида. Тот считает, что Рокки просто обязан вернуть себе чемпионский титул, и начинает его тренировать. Впереди – матч-реванш против Лэнга.-Огромная благодарность за помощь в создании релиза:
dalemake - видеоряд
kinaman - перевод телеканала ОРТ, записанный в начале нулевых.
miha2154 - перевод телеканала НТВ, записанный с телеканала Перец. Этот же перевод был на телеканале СТС.
JUSTKANT - обработка звука и синхронизация переводов.-На русский язык фильм озвучен по заказу Общественного Российского Телевидения
Текст читают Владимир Герасимов, Олег Куценко, Александр Хотченков и Мария Овчинникова.
На русский язык фильм озвучен телекомпанией НТВ
Текст читают Алексей Инжеватов, Александр Клюквин и Людмила Гнилова.-
Рейтинг

MPAA: R - Лицам до 17-ти лет обязательно присутствие взрослого.-Качество видео: BDRip
Формат видео: AVI -> //Сэмпл//
Видео: XviD, 704x384 (1.85:1), 23.976 fps, 1692 kbps
Аудио:
1 - 48 khz, AC3 Dolby Digital, 2/0 (L,R) ch, ~192 kbps [ОРТ] VHSRip-ТВ
2 - 48 khz, AC3 Dolby Digital, 2/0 (L,R) ch, ~192 kbps [НТВ / СТС / Перец] SATRip-ОБНОВЛЕНИЕ РЕЛИЗА ОТ 16.06.2019
Переводы ОРТ и НТВ заново пере-синхронизированы, у перевода НТВ новый звук и лучшее качество
Просьба пере-скачать торрент!

MediaInfo

General
Complete name : D:\ТОРРЕНТЫ (Фильмы для рутрекера)\Рокки 3 (ОРТ + НТВ).avi
Format : AVI
Format/Info : Audio Video Interleave
File size : 1.46 GiB
Duration : 1 h 39 min
Overall bit rate : 2 091 kb/s
Movie name : Рокки 3 / Rocky III (ОРТ + НТВ)
Director : JUSTKANT
Writing application : VirtualDubMod 1.5.10.3 | www.virtualdub-fr.org || (build 2550/release)
Copyright : На русский язык фильм озвучен по заказу ОРТ / телекомпанией НТВ
Comment : Качество звука: ОРТ - VHSRipТВ (kinaman) & НТВ - SATRip (miha2154)
Video
ID : 0
Format : MPEG-4 Visual
Format profile : Advanced Simple@L5
Format settings : BVOP1 / Custom Matrix
Format settings, BVOP : 1
Format settings, QPel : No
Format settings, GMC : No warppoints
Format settings, Matrix : Custom
Codec ID : XVID
Codec ID/Hint : XviD
Duration : 1 h 39 min
Bit rate : 1 692 kb/s
Width : 704 pixels
Height : 384 pixels
Display aspect ratio : 1.85:1
Frame rate : 23.976 (24000/1001) FPS
Color space : YUV
Chroma subsampling : 4:2:0
Bit depth : 8 bits
Scan type : Progressive
Compression mode : Lossy
Bits/(Pixel*Frame) : 0.261
Stream size : 1.18 GiB (81%)
Writing library : XviD 67
Audio #1
ID : 1
Format : AC-3
Format/Info : Audio Coding 3
Commercial name : Dolby Digital
Codec ID : 2000
Duration : 1 h 39 min
Bit rate mode : Constant
Bit rate : 192 kb/s
Channel(s) : 2 channels
Channel layout : L R
Sampling rate : 48.0 kHz
Frame rate : 31.250 FPS (1536 SPF)
Bit depth : 16 bits
Compression mode : Lossy
Stream size : 137 MiB (9%)
Alignment : Split across interleaves
Interleave, duration : 42 ms (1.00 video frame)
Interleave, preload duratio : 500 ms
Title : ОРТ: Владимир Герасимов, Олег Куценко, Александр Хотченков и Мария Овчинникова
Service kind : Complete Main
Audio #2
ID : 2
Format : AC-3
Format/Info : Audio Coding 3
Commercial name : Dolby Digital
Codec ID : 2000
Duration : 1 h 39 min
Bit rate mode : Constant
Bit rate : 192 kb/s
Channel(s) : 2 channels
Channel layout : L R
Sampling rate : 48.0 kHz
Frame rate : 31.250 FPS (1536 SPF)
Bit depth : 16 bits
Compression mode : Lossy
Stream size : 137 MiB (9%)
Alignment : Split across interleaves
Interleave, duration : 42 ms (1.00 video frame)
Interleave, preload duratio : 500 ms
Title : НТВ / СТС / ПЕРЕЦ: Алексей Инжеватов, Александр Клюквин и Ольга Кузнецова
Service kind : Complete Main

Скриншоты

[opentorrent.pro].t3699.torrent 
Торрент: Зарегистрирован [ 2019-06-17 17:06 ] · DAD02CA3716B3CC4E6EAB6332AE25EE866BB0460

Скачать .torrent

Скачать

15 KB

Статус: проверено
Скачан: 0 раз
Размер: 1,46 GB  ·  Тип торрента
terms.php
Профиль [ЛС]
Показать сообщения:    

Текущее время: 05-Авг 04:39

Часовой пояс: UTC ± 0



Вы не можете начинать темы
Вы не можете отвечать на сообщения
Вы не можете редактировать свои сообщения
Вы не можете удалять свои сообщения
Вы не можете голосовать в опросах
Вы не можете прикреплять файлы к сообщениям
Вы можете скачивать файлы