Статистика раздачи
Размер:  2,18 GB   |    Зарегистрирован:  1 год   |    Скачан:  0 раз
DL-List: Нет

Полного источника не было: Никогда

 
     
 
 

serzh ®

Пол:
Не указан
Стаж:
1 год 3 месяца
Сообщений:
442

Бездна / Пропасть / The Abyss
Театральная Версия / Theatrical Cut
«Глубоко под водой есть место, о котором никто никогда не мечтал...»
Страна: США
Жанр: фантастика, триллер
Год выпуска: 1989
Продолжительность: 02:20:21
Перевод: Одноголосый закадровый
Субтитры: нет
Режиссер: Джеймс Кэмерон / James Cameron
В ролях: Эд Харрис (Virgil «Bud» Brigman), Мэри Элизабет Мастрантонио (Lindsey Brigman), Майкл Бин (Lt. Hiram Coffey), Лео Бёрместер (Catfish De Vries), Тодд Графф (Alan «Hippy» Carnes), Джон Бедфорд Ллойд (Jammer Willis), Дж. К. Куин («Sonny» Dawson), Кимберли Скотт (Lisa «One Night» Standing), Капитан Кидд Брюер мл. (Lew Finler), Джордж Роберт Клек (Wilhite)
Описание: Подводная эпопея о катастрофе плавно, по ходу сюжета, переходит во встречу с инопланетной цивилизацией. На бытовом уровне любовная связь Бада (Хэррис) и его жены, которая хочет с ним развестись. Бад и его коллеги ищут затонувшую ядерную субмарину и находят пришельцев. Фильм дорогой, весьма зрелищный, все под водой и невероятно эффектно. "Оскар" за визуальные спецэффекты. Потрясающий звук. "Оскарные" номинации за операторскую работу, работу художников, звук. (Иванов М.)
Доп. информация: Дорожка с VO синхронизирована и наложена ale_x2008 при помощи Sony Vegas и VirtualDubMod.
За оцифрованную с VHS дорожку благодарим - Glowamy

Релиз
Сэмпл: https://yadi.sk/i/_2S069uQQaHK3A
Качество видео: WEB-DLRip [The.Abyss.1989.1080p.WEBRip.DD5.1.x264-SpaceHD13.mkv]
Формат видео: AVI
Видео: XviD build 73, 720x304 (2.37:1), 23.976 fps, 2026 kbps avg, 0.39 bit/pixel
Аудио: AC3 Dolby Digital, 48000Hz 2/0 (L,R) ch (mono), 192 kbps avg

MediaInfo

Бездна - The Abyss (by ale_x2008).avi
Format : AVI
Format/Info : Audio Video Interleave
Format profile : OpenDML
File size : 2.18 GiB
Duration : 2 h 20 min
Overall bit rate : 2 226 kb/s
Movie name : Бездна - The Abyss (by ale_x2008)
Director : by ale_X2008
Writing application : VirtualDubMod 1.5.10.2 (build 2540/release)
Copyright : Edich2
Comment : RuTracker.org
Video
ID : 0
Format : MPEG-4 Visual
Format profile : Advanced Simple@L5
Format settings : BVOP1 / Custom Matrix
Format settings, BVOP : 1
Format settings, QPel : No
Format settings, GMC : No warppoints
Format settings, Matrix : Custom
Codec ID : XVID
Codec ID/Hint : XviD
Duration : 2 h 20 min
Bit rate : 2 022 kb/s
Width : 720 pixels
Height : 304 pixels
Display aspect ratio : 2.35:1
Frame rate : 23.976 (24000/1001) FPS
Color space : YUV
Chroma subsampling : 4:2:0
Bit depth : 8 bits
Scan type : Progressive
Compression mode : Lossy
Bits/(Pixel*Frame) : 0.385
Stream size : 1.98 GiB (91%)
Writing library : XviD 73
Audio
ID : 1
Format : AC-3
Format/Info : Audio Coding 3
Codec ID : 2000
Duration : 2 h 20 min
Bit rate mode : Constant
Bit rate : 192 kb/s
Channel(s) : 2 channels
Channel positions : Front: L R
Sampling rate : 48.0 kHz
Frame rate : 31.250 FPS (1536 SPF)
Bit depth : 16 bits
Compression mode : Lossy
Stream size : 193 MiB (9%)
Alignment : Split accross interleaves
Interleave, duration : 42 ms (1.00 video frame)
Interleave, preload duratio : 500 ms
Service kind : Complete Main

Скриншоты


[opentorrent.pro].t3706.torrent 
Торрент: Зарегистрирован [ 2019-06-17 17:06 ] · 4ED3AF6DD7658DFF7125BBD63DBC068AB63BD94C

Скачать .torrent

Скачать

11 KB

Статус: проверено
Скачан: 0 раз
Размер: 2,18 GB  ·  Тип торрента
terms.php
Профиль [ЛС]
Показать сообщения:    

Текущее время: 02-Июл 08:21

Часовой пояс: UTC ± 0



Вы не можете начинать темы
Вы не можете отвечать на сообщения
Вы не можете редактировать свои сообщения
Вы не можете удалять свои сообщения
Вы не можете голосовать в опросах
Вы не можете прикреплять файлы к сообщениям
Вы можете скачивать файлы