Статистика раздачи
Размер:  5,14 GB   |    Зарегистрирован:  1 год 1 месяц   |    Скачан:  0 раз
DL-List: Нет
Сидов:  5  [  0 KB/s  ]   Личеров:  2  [  0 KB/s  ]  
 
     
 
 

Гость ®

Пол:
Не указан

Роман с прошлым
Год выпуска: 2019
Производство: ООО «Студия ГЕРИОН», киностудия «АРС»
Жанр: мелодрама
Продолжительность: ~00:44:00 серия
Субтитры: нет
Режиссёр: Мария Кравченко
В ролях: Татьяна Казючиц, Роман Полянский, Владимир Фекленко, Евгений Никитин, Зоя Антонова, Ирина Нарбекова, Юлианна Михневич, Валерий Воротынский, Павел Коренчук
Описание: Лиза — дочь прокурора района и начинающий адвокат. Она вполне счастлива замужем за другом семьи Сергеем. Лиза растит сына, но мечтает открыть свою практику. Неожиданно в ее жизнь возвращается Олег — ее первая любовь. Когда-то властный отец Лизы, желая дочери счастья, разрушил их отношения с Олегом, но Лиза этого так и не узнала. Теперь же Олег ведет журналистское расследование в отношении мужа Лизы. Внезапно открывшиеся тайны меняют все, ведь оказывается, что и чувства Лизы и Олега никуда не исчезли.

Реклама: Нет.
Кинопоиск
Все раздачи сериала
Sample
Качество: HDTVRip 720p - ExKinoRay
Формат: MKV
Видео кодек: H.264
Аудио кодек: AC3
Видео: MPEG4 AVC Video, H264, 16:9, 1280x720, 25 fps, ~4000 kbps, 0.174 bit/pixel
Аудио: AC3 Dolby Digital, 48 kHz, 2/0 (L,R) ch, 192 kbp

MI

General
Unique ID : 197867634656326642573986330321826785020 (0x94DBEB96390EF5B59EAE6387ADC2A6FC)
Complete name : D:\Roman.s.proshlym.2019.HDTVRip.(720p).ExKinoRay\Roman.s.proshlym.(01.seriya.iz.02).2019.HDTVRip.(720p).ExKinoRay.mkv
Format : Matroska
Format version : Version 4 / Version 2
File size : 2.59 GiB
Duration : 1 h 28 min
Overall bit rate : 4 194 kb/s
Encoded date : UTC 2019-06-16 06:41:06
Writing application : mkvmerge v7.8.0 ('River Man') 32bit built on Mar 27 2015 16:18:02
Writing library : libebml v1.3.1 + libmatroska v1.4.2
Video
ID : 1
Format : AVC
Format/Info : Advanced Video Codec
Format profile : High@L4.1
Format settings : CABAC / 9 Ref Frames
Format settings, CABAC : Yes
Format settings, ReFrames : 9 frames
Codec ID : V_MPEG4/ISO/AVC
Duration : 1 h 28 min
Bit rate : 4 000 kb/s
Width : 1 280 pixels
Height : 720 pixels
Display aspect ratio : 16:9
Frame rate mode : Constant
Frame rate : 25.000 FPS
Color space : YUV
Chroma subsampling : 4:2:0
Bit depth : 8 bits
Scan type : Progressive
Bits/(Pixel*Frame) : 0.174
Stream size : 2.47 GiB (95%)
Writing library : x264 core 146 r2538 121396c
Encoding settings : cabac=1 / ref=9 / deblock=1:-3:-3 / analyse=0x3:0x133 / me=umh / subme=10 / psy=1 / psy_rd=1.00:0.20 / mixed_ref=1 / me_range=32 / chroma_me=1 / trellis=2 / 8x8dct=1 / cqm=0 / deadzone=21,11 / fast_pskip=1 / chroma_qp_offset=-3 / threads=12 / lookahead_threads=8 / sliced_threads=0 / nr=0 / decimate=1 / interlaced=0 / bluray_compat=0 / constrained_intra=0 / bframes=11 / b_pyramid=2 / b_adapt=2 / b_bias=0 / direct=1 / weightb=1 / open_gop=0 / weightp=2 / keyint=250 / keyint_min=25 / scenecut=40 / intra_refresh=0 / rc=2pass / mbtree=0 / bitrate=4000 / ratetol=1.0 / qcomp=0.60 / qpmin=0 / qpmax=69 / qpstep=4 / cplxblur=20.0 / qblur=0.5 / ip_ratio=1.40 / pb_ratio=1.30 / aq=3:1.00
Default : No
Forced : No
Color range : Limited
Color primaries : BT.709
Transfer characteristics : BT.709
Matrix coefficients : BT.709
Audio
ID : 2
Format : AC-3
Format/Info : Audio Coding 3
Codec ID : A_AC3
Duration : 1 h 28 min
Bit rate mode : Constant
Bit rate : 192 kb/s
Channel(s) : 2 channels
Channel positions : Front: L R
Sampling rate : 48.0 kHz
Frame rate : 31.250 FPS (1536 SPF)
Bit depth : 16 bits
Compression mode : Lossy
Stream size : 121 MiB (5%)
Language : Russian
Service kind : Complete Main
Default : Yes
Forced : Yes

Скриншоты


[opentorrent.pro].t3714.torrent 
Торрент: Зарегистрирован [ 2019-06-17 17:06 ] · BC70660A3B18551D7DD67689191A9804434F9FE6

Скачать .torrent

Скачать

26 KB

Статус: проверено
Скачан: 0 раз
Размер: 5,14 GB  ·  Тип торрента
terms.php
Показать сообщения:    

Текущее время: 11-Авг 15:38

Часовой пояс: UTC ± 0



Вы не можете начинать темы
Вы не можете отвечать на сообщения
Вы не можете редактировать свои сообщения
Вы не можете удалять свои сообщения
Вы не можете голосовать в опросах
Вы не можете прикреплять файлы к сообщениям
Вы можете скачивать файлы