Статистика раздачи
Размер:  2,18 GB   |    Зарегистрирован:  11 месяцев 6 дней   |    Скачан:  0 раз
DL-List: Нет
Сидов:  1  [  0 KB/s  ]  
 
     
 
 

солнышко ®

Пол:
Не указан
Стаж:
1 год 2 месяца
Сообщений:
723

Бамблби / Bumblebee- Год выпуска: 2018
Страна: Китай, США / Paramount Pictures, Di Bonaventura Pictures
Жанр: фантастика, боевик, приключения
Продолжительность: 01:53:53
Перевод: Профессиональный (дублированный) BD EUR
Субтитры: русские (форсированные, полные)
Оригинальная аудиодорожка: нет-Режиссер: Трэвис Найт / Travis Knight-В ролях: Дилан О’Брайен, Хейли Стайнфелд, Хорхе Лендеборг мл., Джон Сина, Джейсон Йен Дракер, Памела Адлон, Стивен Шнайдер, Рикардо Хойос, Джон Ортис, Глинн Тёрмен.-Описание: 1987 год. Скрываясь от преследования, Бамблби находит убежище на автомобильной свалке в калифорнийском городке, где живет Чарли. Девушке скоро исполнится 18, она стремится найти свое место в жизни. И именно она наталкивается на покореженного и сломленного Бамблби. Приведя его в чувство, Чарли моментально осознает: на ее пути оказался не простой желтый Фольксваген Жук…-Рейтинг
kinopoisk.ru 6.541 (29 526)
imdb.com 6.90 (94 958)
-Качество видео: BDRip-AVC (Bumblebee.2018.BluRay.1080p.AVC.Atmos.TrueHD7.1-CHDBits)
Формат видео: MKV | Sample
Видео: 1024x576 (16:9), 23.976 fps, x264@L4.1 ~2288 kbps avg, 0.16 bit/pixel
Аудио: 48 kHz, AC3 Dolby Digital, 3/2 (L,C,R,l,r) + LFE ch, ~448.00 kbps avg | RUS

Инфо

Формат : Matroska
Версия формата : Version 4
Размер файла : 2,18 Гбайт
Продолжительность : 1 ч. 53 м.
Общий поток : 2737 Кбит/сек
Название фильма : Бамблби / Bumblebee / 2018
Дата кодирования : UTC 2019-06-17 12:15:27
Программа кодирования : mkvmerge v34.0.0 ('Sight and Seen') 32-bit
Библиотека кодирования : libebml v1.3.7 + libmatroska v1.5.0
Видео
Идентификатор : 1
Формат : AVC
Формат/Информация : Advanced Video Codec
Профиль формата : High@L4.1
Настройки формата : CABAC / 10 Ref Frames
Параметр CABAC формата : Да
Параметр RefFrames формата : 10 кадров
Идентификатор кодека : V_MPEG4/ISO/AVC
Продолжительность : 1 ч. 53 м.
Битрейт : 2288 Кбит/сек
Ширина : 1024 пикселя
Высота : 576 пикселей
Соотношение сторон : 16:9
Режим частоты кадров : Постоянный
Частота кадров : 23,976 (24000/1001) кадра/сек
Цветовое пространство : YUV
Субдискретизация насыщенности : 4:2:0
Битовая глубина : 8 бит
Тип развёртки : Прогрессивная
Бит/(Пиксели*Кадры) : 0.162
Размер потока : 1,82 Гбайт (84%)
Заголовок : BDRip-AVC
Библиотека кодирования : x264 core 146 r2538 121396c
Настройки программы : cabac=1 / ref=10 / deblock=1:-3:-3 / analyse=0x3:0x113 / me=umh / subme=11 / psy=1 / psy_rd=0.99:0.04 / mixed_ref=1 / me_range=48 / chroma_me=1 / trellis=2 / 8x8dct=1 / cqm=0 / deadzone=21,11 / fast_pskip=1 / chroma_qp_offset=-3 / threads=6 / lookahead_threads=1 / sliced_threads=0 / nr=0 / decimate=1 / interlaced=0 / bluray_compat=0 / constrained_intra=0 / bframes=11 / b_pyramid=2 / b_adapt=2 / b_bias=0 / direct=3 / weightb=1 / open_gop=0 / weightp=2 / keyint=240 / keyint_min=23 / scenecut=40 / intra_refresh=0 / rc_lookahead=40 / rc=2pass / mbtree=0 / bitrate=2288 / ratetol=1.0 / qcomp=0.60 / qpmin=0 / qpmax=69 / qpstep=4 / cplxblur=20.0 / qblur=0.5 / vbv_maxrate=50000 / vbv_bufsize=62500 / nal_hrd=none / filler=0 / ip_ratio=1.40 / pb_ratio=1.30 / aq=1:1.00
Язык : English
Default : Да
Forced : Нет
Аудио
Идентификатор : 2
Формат : AC-3
Формат/Информация : Audio Coding 3
Коммерческое название : Dolby Digital
Идентификатор кодека : A_AC3
Продолжительность : 1 ч. 53 м.
Вид битрейта : Постоянный
Битрейт : 448 Кбит/сек
Каналы : 6 каналов
ChannelLayout : L R C LFE Ls Rs
Частота : 48,0 КГц
Частота кадров : 31,250 кадров/сек (1536 SPF)
Битовая глубина : 16 бит
Метод сжатия : С потерями
Размер потока : 365 Мбайт (16%)
Заголовок : Dub
Язык : Russian
ServiceKind/String : Complete Main
Default : Да
Forced : Нет
Текст #1
Идентификатор : 3
Формат : UTF-8
Идентификатор кодека : S_TEXT/UTF8
Идентификатор кодека/Информация : UTF-8 Plain Text
Продолжительность : 1 ч. 45 м.
Битрейт : 1 бит/сек
ElementCount : 29
Размер потока : 1,14 Кбайт (0%)
Заголовок : Forced
Язык : Russian
Default : Да
Forced : Нет
Текст #2
Идентификатор : 4
Формат : UTF-8
Идентификатор кодека : S_TEXT/UTF8
Идентификатор кодека/Информация : UTF-8 Plain Text
Продолжительность : 1 ч. 53 м.
Битрейт : 61 бит/сек
ElementCount : 1164
Размер потока : 51,0 Кбайт (0%)
Заголовок : Full
Язык : Russian
Default : Нет
Forced : Нет
Меню
00:00:00.000 : :Глава 01
00:03:30.710 : :Глава 02
00:12:16.485 : :Глава 03
00:16:56.724 : :Глава 04
00:21:03.053 : :Глава 05
00:26:42.601 : :Глава 06
00:32:33.326 : :Глава 07
00:39:44.090 : :Глава 08
00:45:18.590 : :Глава 09
00:50:43.623 : :Глава 10
00:54:16.253 : :Глава 11
01:01:10.708 : :Глава 12
01:06:26.899 : :Глава 13
01:11:39.545 : :Глава 14
01:16:08.105 : :Глава 15
01:21:37.142 : :Глава 16
01:25:08.603 : :Глава 17
01:30:15.410 : :Глава 18
01:36:46.801 : :Глава 19
01:43:52.559 : :Глава 20
01:49:43.201 : :Глава 21

Скриншоты

[opentorrent.pro].t3725.torrent 
Торрент: Зарегистрирован [ 2019-06-18 15:32 ] · 50222FDD1826CB24048EF37F4E844A62D86CE075

Скачать .torrent

Скачать

11 KB

Статус: проверено
Скачан: 0 раз
Размер: 2,18 GB  ·  Тип торрента
terms.php
Профиль [ЛС]
Показать сообщения:    

Текущее время: 25-Май 04:14

Часовой пояс: UTC ± 0



Вы не можете начинать темы
Вы не можете отвечать на сообщения
Вы не можете редактировать свои сообщения
Вы не можете удалять свои сообщения
Вы не можете голосовать в опросах
Вы не можете прикреплять файлы к сообщениям
Вы можете скачивать файлы