Статистика раздачи
Размер:  1,46 GB   |    Зарегистрирован:  11 месяцев 10 дней   |    Скачан:  0 раз
DL-List: Нет

Полного источника не было: Никогда

 
     
 
 

солнышко ®

Пол:
Не указан
Стаж:
1 год 2 месяца
Сообщений:
723

Щелкунчик и четыре королевства / The Nutcracker and the Four Realms- Год выпуска: 2018
Страна: США / Walt Disney Pictures, The Mark Gordon Company
Жанр: фэнтези, приключения, семейный
Продолжительность: 01:39:16
Перевод: Профессиональный (дублированный) BD EUR
Субтитры: нет-Режиссер: Лассе Халльстрём / Lasse Hallström, Джо Джонстон / Joe Johnston-В ролях: Маккензи Фой, Кира Найтли, Хелен Миррен, Морган Фриман, Эухенио Дербес, Джейден Фовора-Найт, Мисти Коуплэнд, Ричард Э. Грант, Мэттью Макфэдиен, Сергей Полунин.-Описание: Получив необычный подарок на Рождество, юная Клара отправляется в захватывающее путешествие по загадочным местам: Стране Снегов, Стране Цветов и Стране Сладостей. Но девушке нужно попасть и в четвертое королевство, где ей придется столкнуться с целой армией мышей во главе с невероятно опасным Мышиным Королем.-Рейтинг
kinopoisk.ru 5.686 (10 365)
imdb.com 5.50 (18 956)
-Качество видео: BDRip-AVC ( The.Nutcracker.and.the.Four.Realms.2018.BDRemux.TeamHD-potroks)
Формат видео: MKV | Sample
Видео: 964x520 (1.85:1), 23.976 fps, x264@L4.1 ~1655 kbps avg, 0.14 bit/pixel
Аудио: 48 kHz, AC3 Dolby Digital, 3/2 (L,C,R,l,r) + LFE ch, ~448.00 kbps avg | RUS

Инфо

Формат : Matroska
Версия формата : Version 4
Размер файла : 1,46 Гбайт
Продолжительность : 1 ч. 39 м.
Общий поток : 2105 Кбит/сек
Название фильма : The Nutcracker and the Four Realms (2018)
Дата кодирования : UTC 2019-06-17 15:49:40
Программа кодирования : mkvmerge v34.0.0 ('Sight and Seen') 32-bit
Библиотека кодирования : libebml v1.3.7 + libmatroska v1.5.0
Видео
Идентификатор : 1
Формат : AVC
Формат/Информация : Advanced Video Codec
Профиль формата : High@L4.1
Настройки формата : CABAC / 12 Ref Frames
Параметр CABAC формата : Да
Параметр RefFrames формата : 12 кадров
Идентификатор кодека : V_MPEG4/ISO/AVC
Продолжительность : 1 ч. 39 м.
Битрейт : 1655 Кбит/сек
Ширина : 964 пикселя
Высота : 520 пикселей
Соотношение сторон : 1,85:1
Режим частоты кадров : Постоянный
Частота кадров : 23,976 (24000/1001) кадра/сек
Цветовое пространство : YUV
Субдискретизация насыщенности : 4:2:0
Битовая глубина : 8 бит
Тип развёртки : Прогрессивная
Бит/(Пиксели*Кадры) : 0.138
Размер потока : 1,15 Гбайт (79%)
Заголовок : potroks
Библиотека кодирования : x264 core 157 r2935 545de2f
Настройки программы : cabac=1 / ref=12 / deblock=1:-1:-1 / analyse=0x3:0x133 / me=umh / subme=11 / psy=1 / psy_rd=1.00:0.05 / mixed_ref=1 / me_range=32 / chroma_me=1 / trellis=2 / 8x8dct=1 / cqm=0 / deadzone=21,11 / fast_pskip=0 / chroma_qp_offset=-3 / threads=9 / lookahead_threads=2 / sliced_threads=0 / nr=0 / decimate=0 / interlaced=0 / bluray_compat=0 / constrained_intra=0 / bframes=11 / b_pyramid=2 / b_adapt=2 / b_bias=0 / direct=3 / weightb=1 / open_gop=0 / weightp=2 / keyint=240 / keyint_min=23 / scenecut=40 / intra_refresh=0 / rc_lookahead=100 / rc=2pass / mbtree=0 / bitrate=1655 / ratetol=1.0 / qcomp=0.70 / qpmin=0 / qpmax=69 / qpstep=4 / cplxblur=20.0 / qblur=0.5 / vbv_maxrate=50000 / vbv_bufsize=50000 / nal_hrd=none / filler=0 / ip_ratio=1.35 / pb_ratio=1.25 / aq=1:0.80
Язык : English
Default : Да
Forced : Нет
Аудио
Идентификатор : 2
Формат : AC-3
Формат/Информация : Audio Coding 3
Коммерческое название : Dolby Digital
Идентификатор кодека : A_AC3
Продолжительность : 1 ч. 39 м.
Вид битрейта : Постоянный
Битрейт : 448 Кбит/сек
Каналы : 6 каналов
ChannelLayout : L R C LFE Ls Rs
Частота : 48,0 КГц
Частота кадров : 31,250 кадров/сек (1536 SPF)
Битовая глубина : 16 бит
Метод сжатия : С потерями
Размер потока : 318 Мбайт (21%)
Заголовок : Dub | DD 5.1 @ 448 kbps - Blu-ray EUR
Язык : Russian
ServiceKind/String : Complete Main
Default : Да
Forced : Нет
Меню
00:00:00.000 : en:Chapter 01
00:08:39.101 : en:Chapter 02
00:16:47.256 : en:Chapter 03
00:25:37.744 : en:Chapter 04
00:34:20.891 : en:Chapter 05
00:43:28.397 : en:Chapter 06
00:48:31.992 : en:Chapter 07
00:56:07.655 : en:Chapter 08
00:59:09.545 : en:Chapter 09
01:04:57.310 : en:Chapter 10
01:11:49.722 : en:Chapter 11
01:18:10.519 : en:Chapter 12
01:22:04.002 : en:Chapter 13
01:30:06.274 : en:Chapter 14

Скриншоты

[opentorrent.pro].t3730.torrent 
Торрент: Зарегистрирован [ 2019-06-18 15:32 ] · B5DF00E4E9DF7FA94A1ACA4821A8FC3E2773B8B2

Скачать .torrent

Скачать

15 KB

Статус: проверено
Скачан: 0 раз
Размер: 1,46 GB  ·  Тип торрента
terms.php
Профиль [ЛС]
Показать сообщения:    

Текущее время: 28-Май 16:20

Часовой пояс: UTC ± 0



Вы не можете начинать темы
Вы не можете отвечать на сообщения
Вы не можете редактировать свои сообщения
Вы не можете удалять свои сообщения
Вы не можете голосовать в опросах
Вы не можете прикреплять файлы к сообщениям
Вы можете скачивать файлы