Статистика раздачи
Размер:  1,27 GB   |    Зарегистрирован:  1 год 1 месяц   |    Скачан:  0 раз
DL-List: Нет
Сидов:  1  [  0 KB/s  ]  
 
     
 
 

Гость ®

Пол:
Не указан

Ангел-хранитель
Год выпуска: 2019
Производство: Фаворит-фильм
Жанр: мелодрама
Продолжительность: ~00:52:00 серия
Субтитры: нет
Режиссёр: Максим Демченко
В ролях: Ольга Павловец, Владимир Гостюхин, Алексей Шевченков, Анна Вартанян, Ирина Шевчук, Дмитрий Щербина, Виктор Добронравов, Ангелина Стречина, Алексей Демидов, Софья Ардова, Анатолий Кот, Александра Афанасьева-Шевчук, Юлия Галкина, Артур Иванов, Любовь Хацкевич, Юлия Кудояр, Юрий Кузнецов-Таёжный, Максим Литовченко, Иван Соловьёв , Анастасия Уколова, Алексей Фатеев
Описание: В подмосковном селе и усадьбе Ангелово живут две семьи. У профессора Ангелова три дочери: Лида, Вера и Надя, у крестьянина Тимофея Кондратьева три сына: Фёдор, Степан и Павел. 1917 год круто меняет все вокруг. В первом же «классовом» столкновении гибнут и Ангелов, и Кондратьев. Их дети проживают собственную жизнь в соответствии со своей удачей, наклонностями и возможностями: кто-то оказывается в Париже, кто-то в ГУЛАГе, а кому-то суждено стать хранителем родового гнезда.

Реклама: Нет.
Кинопоиск
Все раздачи сериала
Sample
Качество: HDTVRip - olegka7373 (GeneralFilm)
Формат: AVI
Видео кодек: XviD
Аудио кодек: AC3
Видео: 720x400 (1.80:1), 25 fps, XviD, ~1570 kbps avg, 0.218 bit/pixel
Аудио: 48.0 kHz, AC3 Dolby Digital, 2/0 (L,R) ch, ~ 192 kbps

Внимание! Раздача ведётся путём добавления новых серий

Раздача ведётся путём добавления новых серий, при каждом добавлении создаётся новый торрент. Чтобы начать докачку новой серии, пользователям необходимо сделать следующее:
- Остановить скачивание.
- Удалить старый торрент у себя из клиента (старые серии удалять не надо).
- Скачать новый торрент и запустить его у себя в клиенте вместо старого, при этом указать клиенту путь в старую папку куда и должно происходить скачивание новых серий.
Ваш клиент при этом должен произвести хеширование (проверку) старой папки (если не производит сам - помогите ему сделать это), и будет докачивать только те серии которых у вас ещё нет. Старые серии при этом не удаляются, а продолжают раздаваться!
Если вы уже удалили старые серии, то предотвратить повторную закачку старых серий можно, отжав галочку в соответствующих местах при запуске нового торрента. По возможности, желательно не удалять старые серии как можно дольше, чтобы релизер не столько продолжал раздавать старые серии, а смог сконцентрироваться на новых.

MI

General
Complete name : D:\Angel-hranitel.HDTVRip.GeneralFilm\01.Angel-hranitel.HDTVRip.GeneralFilm.avi
Format : AVI
Format/Info : Audio Video Interleave
File size : 663 MiB
Duration : 52 min 10 s
Overall bit rate : 1 776 kb/s
Video
ID : 0
Format : MPEG-4 Visual
Format profile : Advanced Simple@L5
Format settings : BVOP1 / Custom Matrix
Format settings, BVOP : 1
Format settings, QPel : No
Format settings, GMC : No warppoints
Format settings, Matrix : Custom
Codec ID : XVID
Codec ID/Hint : XviD
Duration : 52 min 10 s
Bit rate : 1 572 kb/s
Width : 720 pixels
Height : 400 pixels
Display aspect ratio : 16:9
Frame rate : 25.000 FPS
Color space : YUV
Chroma subsampling : 4:2:0
Bit depth : 8 bits
Scan type : Progressive
Compression mode : Lossy
Bits/(Pixel*Frame) : 0.218
Stream size : 587 MiB (89%)
Writing library : XviD 1.2.1 (UTC 2008-12-04)
Audio
ID : 1
Format : AC-3
Format/Info : Audio Coding 3
Codec ID : 2000
Duration : 52 min 10 s
Bit rate mode : Constant
Bit rate : 192 kb/s
Channel(s) : 2 channels
Channel positions : Front: L R
Sampling rate : 48.0 kHz
Frame rate : 31.250 FPS (1536 SPF)
Bit depth : 16 bits
Compression mode : Lossy
Stream size : 71.6 MiB (11%)
Alignment : Aligned on interleaves
Interleave, duration : 32 ms (0.80 video frame)
Service kind : Complete Main

Скриншоты


[opentorrent.pro].t3731.torrent 
Торрент: Зарегистрирован [ 2019-06-18 15:32 ] · 42B13DF510CC03DE0ACDEE05B741A5AB37187AFB

Скачать .torrent

Скачать

13 KB

Статус: проверено
Скачан: 0 раз
Размер: 1,27 GB  ·  Тип торрента
terms.php
Показать сообщения:    

Текущее время: 12-Авг 06:54

Часовой пояс: UTC ± 0



Вы не можете начинать темы
Вы не можете отвечать на сообщения
Вы не можете редактировать свои сообщения
Вы не можете удалять свои сообщения
Вы не можете голосовать в опросах
Вы не можете прикреплять файлы к сообщениям
Вы можете скачивать файлы