Статистика раздачи
Размер:  3,79 GB   |    Зарегистрирован:  1 год 5 месяцев   |    Скачан:  0 раз
DL-List: Нет

Полного источника не было: Никогда

Личеров:  1  [  0 KB/s  ]  
 
     
 
 

Гость ®

Пол:
Не указан

А.Л.Ж.И.Р.
Год выпуска: 2019
Производство: Россия, Кинокомпания «Киноград»
Жанр: История, драма
Продолжительность: 00:50:00
Субтитры: Нет
Режиссёр: Александр Касаткин
В ролях: Дарья Екамасова, Екатерина Гусева, Кирилл Плетнёв, Алексей Шевченков, Михаил Евланов, Клавдия Коршунова, Владимир Мишуков, Кирилл Полухин, Ольга Лапшина, Максим Сапрыкин, Дина Тасбулатова, Кирилл Назаров, Игорь Грабузов, Марина Петренко, Анна Жара, Наталья Романычева, Екатерина Зиновьева, Екатерина Агеева, Инна Сухорецкая
Описание: Фильм рассказывает об одном из самых суровых сталинских женских лагерей, существовавших в СССР. В «Акмолинском Лагере Жен Изменников Родины» содержались более восьми тысяч женщин, среди которых сестра маршала Тухачевского, жены писателей Бориса Пильняка, Аркадия Гайдара, матери Булата Окуджавы и Майи Плисецкой и другие. Вина всех этих женщин заключалась лишь в том, что они ЧСИРки — Члены Семей Изменников Родины. В центре сюжета жена авиаконструктора Ольга Павлова, арестованная как ЧСИР, и София Тер-Ашатурова — выдающаяся оперная певица, задержанная по доносу, которых судьба свела в арестантском поезде.
Релиз группа
Реклама: Сторонней рекламы нет!
Все раздачи сериала А.Л.Ж.И.Р.


Качество: WEBRip
Формат: AVI
Видео кодек: XviD
Аудио кодек: AC3
Видео: 720x400 (1.80:1), 25 fps, XviD build 73 ~1600 kbps avg, 0.222 bit/pixel
Аудио: 48 kHz, AC3 Dolby Digital, 2/0 (L,R) ch, ~192 kbps

Скриншоты

MediaInfo

General
Complete name : H:\fiiles x\А.Л.Ж.И.Р.2019..WEB-DLRip.Files-x\02. А.Л.Ж.И.Р.2019.WEB-DLRip.Files-x..avi
Format : AVI
Format/Info : Audio Video Interleave
File size : 682 MiB
Duration : 52mn 58s
Overall bit rate : 1 801 Kbps
Writing application : VirtualDubMod 1.5.10.3 | www.virtualdub-fr.org || (build 2550/release)
Writing library : VirtualDubMod build 2550/release
Video
ID : 0
Format : MPEG-4 Visual
Format profile : Advanced Simple@L5
Format settings, BVOP : 1
Format settings, QPel : No
Format settings, GMC : No warppoints
Format settings, Matrix : Custom
Codec ID : XVID
Codec ID/Hint : XviD
Duration : 52mn 58s
Bit rate : 1 599 Kbps
Width : 720 pixels
Height : 400 pixels
Display aspect ratio : 16:9
Frame rate : 25.000 fps
Color space : YUV
Chroma subsampling : 4:2:0
Bit depth : 8 bits
Scan type : Progressive
Compression mode : Lossy
Bits/(Pixel*Frame) : 0.222
Stream size : 606 MiB (89%)
Writing library : XviD 73
Audio
ID : 1
Format : AC-3
Format/Info : Audio Coding 3
Mode extension : CM (complete main)
Codec ID : 2000
Duration : 52mn 58s
Bit rate mode : Constant
Bit rate : 192 Kbps
Channel(s) : 2 channels
Channel positions : Front: L R
Sampling rate : 48.0 KHz
Bit depth : 16 bits
Compression mode : Lossy
Stream size : 72.7 MiB (11%)
Alignment : Split accross interleaves
Interleave, duration : 40 ms (1.00 video frame)
Interleave, preload duration : 500 ms

Внимание! Раздача ведётся путём добавления новых серий!

Внимание! Раздача ведётся путём добавления новых серий
Внимание! Раздача ведётся путём добавления новых серий; при каждом добавлении создётся новый торрент.
Чтобы начать докачку новой серии, пользователям необходимо сделать следующее:
1) остановить скачивание
2) удалить старый торрент у себя из клиента (старые серии удалять не надо)
3) скачать новый торрент и запустить его у себя в клиенте вместо старого, при этом указать клиенту путь в старую папку куда и должно происходить скачивание новых серий.
Ваш клиент при этом должен произвести хеширование (проверку) старой папки (если не производит сам - помогите ему сделать это), и будет докачивать только те серии которых у вас ещё нет. Старые серии при этом не удаляются, а продолжают раздаваться!
Eсли вы уже удалили старые серии, то предотвратить повторную закачку старых серий можно, отжав галочку в соответствовавших местах при запуске нового торрента.
[opentorrent.pro].t3745.torrent 
Торрент: Зарегистрирован [ 2019-06-19 15:56 ] · 4543D9FCD4361B7894D14DC1A4DECE94EFB0505C

Скачать .torrent

Скачать

20 KB

Статус: проверено
Скачан: 0 раз
Размер: 3,79 GB  ·  Тип торрента
terms.php
Показать сообщения:    

Текущее время: 26-Ноя 17:44

Часовой пояс: UTC ± 0



Вы не можете начинать темы
Вы не можете отвечать на сообщения
Вы не можете редактировать свои сообщения
Вы не можете удалять свои сообщения
Вы не можете голосовать в опросах
Вы не можете прикреплять файлы к сообщениям
Вы можете скачивать файлы