Статистика раздачи
Размер:  746 MB   |    Зарегистрирован:  11 месяцев 8 дней   |    Скачан:  0 раз
DL-List: Нет

Полного источника не было: Никогда

 
     
 
 

Гость ®

Пол:
Не указан

-Ассимиляция / Assimilate-«First They Bite You, Then They Hunt You, Then They Become You»- -Страна: США
Жанр: ужасы, фантастика, триллер
Год выпуска: 2019
Продолжительность: 01:33:36-Перевод: Любительский (многоголосый закадровый) HDRezka Studio
Субтитры: русские (форсированные)
Оригинальная аудиодорожка: нет-Режиссер: Джон Марловски / John Murlowski-В ролях: Джоэл Кортни, Кэлам Уорси, Энди Мэтичак, Кэтрин МакНамара, Кэм Жиганде, Мэйсон МакНалти, Терри Паркс, Вито Вискузо, Дженнифер Пирс Матус, Кевин Ремингтон-Описание: Томящиеся от скуки приятели Зак и Рэнди однажды решают заняться созданием документального веб-сериала о жизни своего небольшого городка. Однако размеренный быт местного населения настолько однообразен, что друзья начинают сомневаться в какой-либо ценности своего нового проекта. Тогда они и представить себе не могли, в центре каких загадочных событий окажутся уже совсем скоро. А началось всё с двух на первый взгляд никак не связанных межу собой вещей - появления необычных насекомых и странного поведения некоторых горожан, в одночасье переставших испытывать какие-либо эмоции.- - -Качество видео: WEB-DLRip-AVC / WEB-DL 1080p
Формат видео: MKV-Видео: MPEG-4 AVC, 776x420 (1.85:1), 23.976 fps, ~921 kbps avg, 0.118 bit/pixel
Аудио: 48 kHz, AAC HE, 2/0 (L,R) ch, ~64 kbps avg-

MediaInfo

Код:Complete name : D:\Раздача\Ассимиляция (2019) WEB-DLRip-AVC_ivanes.mkv
Format : Matroska
Format version : Version 2
File size : 746 MiB
Duration : 1 h 33 min
Overall bit rate : 1 114 kb/s
Movie name : Ассимиляция (2019) WEB-DLRip-AVC_ivanes
Encoded date : UTC 2019-06-18 16:48:57
Writing application : mkvmerge v4.4.0 ('Die Wiederkehr') сборка от Jan 3 2011 21:40:45
Writing library : libebml v1.0.0 + libmatroska v1.0.0
Cover : Yes
Attachments : cover.jpg
Video
ID : 1
Format : AVC
Format/Info : Advanced Video Codec
Format profile : High@L4.1
Format settings, CABAC : Yes
Format settings, RefFrames : 10 frames
Codec ID : V_MPEG4/ISO/AVC
Duration : 1 h 33 min
Bit rate : 921 kb/s
Width : 776 pixels
Height : 420 pixels
Display aspect ratio : 1.85:1
Frame rate mode : Constant
Frame rate : 23.976 (24000/1001) FPS
Color space : YUV
Chroma subsampling : 4:2:0
Bit depth : 8 bits
Scan type : Progressive
Bits/(Pixel*Frame) : 0.118
Stream size : 602 MiB (81%)
Title : Rip by ivanes
Writing library : x264 core 157 r2969 d4099dd
Encoding settings : cabac=1 / ref=10 / deblock=1:-3:-3 / analyse=0x3:0x113 / me=umh / subme=10 / psy=1 / psy_rd=1.00:0.00 / mixed_ref=1 / me_range=32 / chroma_me=1 / trellis=2 / 8x8dct=1 / cqm=0 / deadzone=21,11 / fast_pskip=0 / chroma_qp_offset=-2 / threads=12 / lookahead_threads=3 / sliced_threads=0 / nr=0 / decimate=1 / interlaced=0 / bluray_compat=0 / constrained_intra=0 / bframes=11 / b_pyramid=2 / b_adapt=2 / b_bias=0 / direct=1 / weightb=1 / open_gop=0 / weightp=2 / keyint=240 / keyint_min=23 / scenecut=40 / intra_refresh=0 / rc_lookahead=60 / rc=2pass / mbtree=0 / bitrate=921 / ratetol=1.0 / qcomp=0.60 / qpmin=0 / qpmax=69 / qpstep=4 / cplxblur=20.0 / qblur=0.5 / vbv_maxrate=50000 / vbv_bufsize=62500 / nal_hrd=none / filler=0 / ip_ratio=1.40 / pb_ratio=1.30 / aq=1:1.00
Default : Yes
Forced : No
Statistics Tags Issue : mkvmerge v10.0.0 ('To Drown In You') 64bit 2019-06-18 16:47:17 / mkvmerge v4.4.0 ('Die Wiederkehr') сборка от Jan 3 2011 21:40:45 2019-06-18 16:48:57
FromStats_BitRate : 920027
FromStats_Duration : 01:33:35.944000000
FromStats_FrameCount : 134648
FromStats_StreamSize : 645852946
Audio
ID : 2
Format : AC-3
Format/Info : Audio Coding 3
Format settings, Endianness : Big
Codec ID : A_AC3
Duration : 1 h 33 min
Bit rate mode : Constant
Bit rate : 192 kb/s
Channel(s) : 2 channels
Channel positions : Front: L R
Sampling rate : 48.0 kHz
Frame rate : 31.250 FPS (1536 SPF)
Bit depth : 16 bits
Compression mode : Lossy
Stream size : 129 MiB (17%)
Title : HDRezka Studio
Language : Russian
Service kind : Complete Main
Default : Yes
Forced : No
Text
ID : 3
Format : UTF-8
Codec ID : S_TEXT/UTF8
Codec ID/Info : UTF-8 Plain Text
Title : Forced
Language : Russian
Default : Yes
Forced : No

Скриншоты

[opentorrent.pro].t3748.torrent 
Торрент: Зарегистрирован [ 2019-06-19 15:56 ] · D5A05119102E1B547CAB5F2BFB4088E9017188DF

Скачать .torrent

Скачать

15 KB

Статус: проверено
Скачан: 0 раз
Размер: 746 MB  ·  Тип торрента
terms.php
Показать сообщения:    

Текущее время: 28-Май 06:20

Часовой пояс: UTC ± 0



Вы не можете начинать темы
Вы не можете отвечать на сообщения
Вы не можете редактировать свои сообщения
Вы не можете удалять свои сообщения
Вы не можете голосовать в опросах
Вы не можете прикреплять файлы к сообщениям
Вы можете скачивать файлы