Статистика раздачи
Нет
 
     
 
 

солнышко ®

Пол:
Не указан
Стаж:
1 год 7 месяцев
Сообщений:
720

Братья Систерс / The Sisters Brothers
Страна: Франция, Испания, Румыния, США, Бельгия
Жанр: вестерн, криминал, приключения
Год выпуска: 2018
Продолжительность: 02:01:05

Перевод: Авторский (одноголосый закадровый) Юрий Живов
Субтитры: нет
Режиссер: Жак Одиар / Jacques Audiard
В ролях: Джон С. Райлли, Хоакин Феникс, Джейк Джилленхол, Риз Ахмед, Ребекка Рут, Эллисон Толман, Рутгер Хауэр, Кэрол Кейн, Зак Эбботт
Описание: Наёмники Элай и Чарли готовы взяться за любую работу, если платят достойно. В деле они довольно долго, убивают по заказу и просто ради забавы, их секрет успеха — грубая сила и незаурядные методы. Босс Командор постоянно подкидывает работенку, но с каждым днем они понимают, что пора уходить на покой. Но впервые в жизни братья Систерс сталкиваются с сильным и умным соперником. Достать молодого ученого-химика по имени Уорм оказывается очень непросто, хитрец ускользает в Сан-Франциско. В результате погони герои узнают, что Уорм обладает новой формулой для поиска золотых залежей. Благодаря этой информации время на добычу золота существенно сокращается, что может сделать искателей очень богатыми! Круговорот событий захлестывает троицу и становится непонятно кто на чьей стороне, ведь когда речь идет о больших деньгах в дело вступают новые лица. Но для братьев это неплохой шанс начать новую жизнь, завязать с убийствами и в то же время обогатиться...
Доп. информация: За перевод Юрия Живова огромная благодарность участникам группы в ВКонтакте Эра VHS.

Сэмпл: http://multi-up.com/1234976
Качество видео: BDRip (Исходник BDRemux 1080p)
Формат видео: AVI
Видео: XviD 73, 720x304, (2,35:1), 24,000 fps, 1974 Кбит/с, 8 бит, 0.29 bit/pixel
Аудио: Русский (АС3, 6 ch (Front: L C R, Side: L R, LFE), 48,0 KHz, 448 Kbps)

MediaInfo

Общее
Полное имя : D:\Фильмы на трекер\Братья Систерс (криминал, приключения, вестерн 2018 год).avi
Формат : AVI
Формат/Информация : Audio Video Interleave
Профиль формата : OpenDML
Размер файла : 2,06 Гбайт
Продолжительность : 2 ч. 1 м.
Общий поток : 2435 Кбит/сек
Программа кодирования : VirtualDubMod 1.5.10.2 (build 2540/release)
Библиотека кодирования : VirtualDubMod build 2540/release
Видео
Идентификатор : 0
Формат : MPEG-4 Visual
Профиль формата : Advanced Simple@L5
Параметр BVOP формата : 2
Параметр QPel формата : Нет
Параметр GMC формата : Без точки перехода
Параметр матрицы формата : Выборочная
Идентификатор кодека : XVID
Идентификатор кодека/Подсказка : XviD
Продолжительность : 2 ч. 1 м.
Битрейт : 1974 Кбит/сек
Ширина : 720 пикселей
Высота : 304 пикселя
Соотношение сторон : 2,35:1
Частота кадров : 24,000 кадра/сек
Цветовое пространство : YUV
Субдискретизация насыщенности : 4:2:0
Битовая глубина : 8 бит
Тип развёртки : Прогрессивная
Метод сжатия : С потерями
Бит/(Пиксели*Кадры) : 0.376
Размер потока : 1,67 Гбайт (81%)
Библиотека кодирования : XviD 73
Аудио
Идентификатор : 1
Формат : AC-3
Формат/Информация : Audio Coding 3
Расширение режима : CM (complete main)
Параметр Endianness формата : Big
Идентификатор кодека : 2000
Продолжительность : 2 ч. 1 м.
Вид битрейта : Постоянный
Битрейт : 448 Кбит/сек
Каналы : 6 каналов
Расположение каналов : Front: L C R, Side: L R, LFE
Частота : 48,0 КГц
Частота кадров : 31,250 кадров/сек (1536 spf)
Метод сжатия : С потерями
Размер потока : 388 Мбайт (18%)
Выравнивание : Разделение по промежуткам
Продолжительность промежутка : 42 мс. (1,00 видеокадр)
Время предзагрузки промежутка : 500 мс.

Скриншот c названием фильма

Скриншоты

Профиль [ЛС]
Показать сообщения:    

Текущее время: 28-Окт 02:43

Часовой пояс: UTC ± 0



Вы не можете начинать темы
Вы не можете отвечать на сообщения
Вы не можете редактировать свои сообщения
Вы не можете удалять свои сообщения
Вы не можете голосовать в опросах
Вы не можете прикреплять файлы к сообщениям
Вы не можете скачивать файлы