Статистика раздачи
Размер:  2,18 GB   |    Зарегистрирован:  1 год   |    Скачан:  0 раз
DL-List: Нет

Полного источника не было: Никогда

 
     
 
 

Гость ®

Пол:
Не указан

Молодая кровь / Son of a Gun«Everyone gets what they deserve»-- Страна: Австралия, Великобритания, Канада
Жанр: Боевик, Триллер, Драма, Криминал
Год выхода: 2014
Продолжительность: 01:48:37
Перевод: Профессиональный (многоголосый, закадровый) | iTunes |
Оригинальная аудиодорожка: Английский
Субтитры: Русские, Английские.
Режиссер: Джулиус Эйвери / Julius Avery
В ролях: Брентон Туэйтс, Юэн МакГрегор, Алисия Викандер, Брендан Керквлиет, Мэтт Флэннаган, Джофф Келсо, Питер Нивс, Мэтью Нэйбл, Эдди Бару, Казимир Шаш
О фильме: Попав в тюрьму, Джей заводит знакомство с самым известным преступником Австралии — Брэнданом Линчем. Линч предлагает Джею свое покровительство в тюрьме, а в обмен на это Джей соглашается помочь ему, когда окажется на свободе. Вместе с бандой Линча Джею будет нужно провернуть крупную кражу золота.
В процессе подготовки к ограблению Джей знакомится с девушкой из банды, Наташей. Они влюбляются друг в друга и начинают подумывать о том, чтобы оставить криминальный мир, но это совсем не входит в планы Брэндана Линча…

Автор рипа: HRIME
Сэмпл: скачать
Формат: AVI
Качество: BDRip (источник: Son.of.a.Gun.2014.COMPLETE.FR.BLURAY)
Кодек: XviD, build 67 codec
Видео: 720 x 304; 24.000 fps; 2025 kbps; 0.385 bit/pixel
Аудио #1: RUS AC3 Dolby Digital; 384 Kbps; 6 channels; 48 KHz
Аудио #2: ENG AC3 Dolby Digital; 448 Kbps; 6 channels; 48 KHz
Размер: 2233 Mb (1/2 DVD)--

Скриншоты


Media Info

Код:General
Complete name : Molodaya.Krov.2014.DUAL.BDRip.XviD.AC3.-HRIME.avi
Format : AVI
Format/Info : Audio Video Interleave
Format profile : OpenDML
File size : 2.18 GiB
Duration : 1h 48mn
Overall bit rate : 2 874 Kbps
Movie name : Son.Of.A.Gun.2014.Julius.Avery
Director : HRIME
Writing application : VirtualDubMod 1.5.10.2 (build 2542/release)
Original source form/Name : Movie
Comment : 20.06.2019
Video
ID : 0
Format : MPEG-4 Visual
Format profile : Advanced Simple@L5
Format settings, BVOP : 1
Format settings, QPel : No
Format settings, GMC : No warppoints
Format settings, Matrix : Custom
Codec ID : XVID
Codec ID/Hint : XviD
Duration : 1h 48mn
Bit rate : 2 025 Kbps
Width : 720 pixels
Height : 304 pixels
Display aspect ratio : 2.35:1
Frame rate : 24.000 fps
Color space : YUV
Chroma subsampling : 4:2:0
Bit depth : 8 bits
Scan type : Progressive
Compression mode : Lossy
Bits/(Pixel*Frame) : 0.385
Stream size : 1.54 GiB (70%)
Writing library : XviD 67
Audio #1
ID : 1
Format : AC-3
Format/Info : Audio Coding 3
Mode extension : CM (complete main)
Codec ID : 2000
Duration : 1h 48mn
Bit rate mode : Constant
Bit rate : 384 Kbps
Channel(s) : 6 channels
Channel positions : Front: L C R, Side: L R, LFE
Sampling rate : 48.0 KHz
Bit depth : 16 bits
Compression mode : Lossy
Stream size : 298 MiB (13%)
Alignment : Split accross interleaves
Interleave, duration : 42 ms (1.00 video frame)
Interleave, preload duration : 500 ms
Audio #2
ID : 2
Format : AC-3
Format/Info : Audio Coding 3
Mode extension : CM (complete main)
Codec ID : 2000
Duration : 1h 48mn
Bit rate mode : Constant
Bit rate : 448 Kbps
Channel(s) : 6 channels
Channel positions : Front: L C R, Side: L R, LFE
Sampling rate : 48.0 KHz
Bit depth : 16 bits
Compression mode : Lossy
Stream size : 348 MiB (16%)
Alignment : Split accross interleaves
Interleave, duration : 42 ms (1.00 video frame)
Interleave, preload duration : 500 ms
[opentorrent.pro].t3772.torrent 
Торрент: Зарегистрирован [ 2019-06-20 16:23 ] · 2C7139F7809A5331B604CA18EB62A793BDB27756

Скачать .torrent

Скачать

12 KB

Статус: проверено
Скачан: 0 раз
Размер: 2,18 GB  ·  Тип торрента
terms.php
Показать сообщения:    

Текущее время: 04-Июл 18:44

Часовой пояс: UTC ± 0



Вы не можете начинать темы
Вы не можете отвечать на сообщения
Вы не можете редактировать свои сообщения
Вы не можете удалять свои сообщения
Вы не можете голосовать в опросах
Вы не можете прикреплять файлы к сообщениям
Вы можете скачивать файлы