Статистика раздачи
Нет
 
     
 
 

солнышко ®

Пол:
Не указан
Стаж:
1 год 8 месяцев
Сообщений:
720

-Земля гангстеров / Gangster Land / In the Absence of Good Men-- -Страна: США
Жанр: боевик, драма, криминал
Год выпуска: 2017
Продолжительность: 01:28:06-Перевод: Любительский (многоголосый закадровый) HDRezka Studio
Субтитры: нет
Оригинальная аудиодорожка: нет-Режиссер: Тимоти Вудворд мл. / Timothy Woodward Jr.-В ролях: Шон Фэрис, Майло Гибсон, Джейсон Патрик, Джейми-Линн Сиглер, Питер Фачинелли, Марк Ролстон, Майкл Паре, Шон Кэнан, Ал Сапиенца, Дон Харви, Шэйн П. Аллен-Описание: История Аль Капоне и его правой руки Джека Макмюррея по прозвищу Пулемёт о борьбе с ирландской мафией, возглавляемой Джорджем Мораном по прозвищу Рехнувшийся. Ужасные бандитские бои завершились знаменитой резнёй в День святого Валентина в 1929 году, в результате которой семь человек погибли от пулеметного нападения, которое, как считается, было заказано самим Капоне.- - -Качество видео: HDRip-AVC / Gangster.Land.2017.1080p.BluRay.DTS-HD.MA.5.1.x264-iFT
Формат видео: MKV-Видео: MPEG-4 AVC, 744x310 (2.40:1), 23.976 fps, ~992 kbps avg, 0.179 bit/pixel
Аудио: 48 kHz, AC3 Dolby Digital, 2/0 (L,R) ch, ~192 kbps avg-

MediaInfo

Код:Complete name : D:\Раздача\Земля гангстеров (2017) HDRip-AVC_ivanes.mkv
Format : Matroska
Format version : Version 2
File size : 747 MiB
Duration : 1 h 28 min
Overall bit rate : 1 185 kb/s
Movie name : Земля гангстеров (2017) HDRip-AVC_ivanes
Encoded date : UTC 2019-06-19 12:51:32
Writing application : mkvmerge v4.4.0 ('Die Wiederkehr') сборка от Jan 3 2011 21:40:45
Writing library : libebml v1.0.0 + libmatroska v1.0.0
Cover : Yes
Attachments : cover.jpg
Video
ID : 1
Format : AVC
Format/Info : Advanced Video Codec
Format profile : High@L4.1
Format settings, CABAC : Yes
Format settings, RefFrames : 10 frames
Codec ID : V_MPEG4/ISO/AVC
Duration : 1 h 28 min
Bit rate : 992 kb/s
Width : 744 pixels
Height : 310 pixels
Display aspect ratio : 2.40:1
Frame rate mode : Constant
Frame rate : 23.976 (24000/1001) FPS
Color space : YUV
Chroma subsampling : 4:2:0
Bit depth : 8 bits
Scan type : Progressive
Bits/(Pixel*Frame) : 0.179
Stream size : 611 MiB (82%)
Title : Rip by ivanes
Writing library : x264 core 157 r2969 d4099dd
Encoding settings : cabac=1 / ref=10 / deblock=1:-3:-3 / analyse=0x3:0x113 / me=umh / subme=10 / psy=1 / psy_rd=1.00:0.00 / mixed_ref=1 / me_range=32 / chroma_me=1 / trellis=2 / 8x8dct=1 / cqm=0 / deadzone=21,11 / fast_pskip=0 / chroma_qp_offset=-2 / threads=12 / lookahead_threads=2 / sliced_threads=0 / nr=0 / decimate=1 / interlaced=0 / bluray_compat=0 / constrained_intra=0 / bframes=13 / b_pyramid=2 / b_adapt=2 / b_bias=0 / direct=1 / weightb=1 / open_gop=0 / weightp=2 / keyint=240 / keyint_min=23 / scenecut=40 / intra_refresh=0 / rc_lookahead=60 / rc=2pass / mbtree=0 / bitrate=992 / ratetol=1.0 / qcomp=0.60 / qpmin=0 / qpmax=69 / qpstep=4 / cplxblur=20.0 / qblur=0.5 / vbv_maxrate=50000 / vbv_bufsize=62500 / nal_hrd=none / filler=0 / ip_ratio=1.40 / pb_ratio=1.30 / aq=1:1.00
Default : Yes
Forced : No
Statistics Tags Issue : mkvmerge v10.0.0 ('To Drown In You') 64bit 2019-06-19 12:45:50 / mkvmerge v4.4.0 ('Die Wiederkehr') сборка от Jan 3 2011 21:40:45 2019-06-19 12:51:32
FromStats_BitRate : 991406
FromStats_Duration : 01:28:05.530000000
FromStats_FrameCount : 126726
FromStats_StreamSize : 655013701
Audio
ID : 2
Format : AC-3
Format/Info : Audio Coding 3
Format settings, Endianness : Big
Codec ID : A_AC3
Duration : 1 h 28 min
Bit rate mode : Constant
Bit rate : 192 kb/s
Channel(s) : 2 channels
Channel positions : Front: L R
Sampling rate : 48.0 kHz
Frame rate : 31.250 FPS (1536 SPF)
Bit depth : 16 bits
Compression mode : Lossy
Stream size : 121 MiB (16%)
Title : HDRezka Studio
Language : Russian
Service kind : Complete Main
Default : Yes
Forced : No

Скриншоты

Профиль [ЛС]
Показать сообщения:    

Текущее время: 26-Ноя 20:29

Часовой пояс: UTC ± 0



Вы не можете начинать темы
Вы не можете отвечать на сообщения
Вы не можете редактировать свои сообщения
Вы не можете удалять свои сообщения
Вы не можете голосовать в опросах
Вы не можете прикреплять файлы к сообщениям
Вы не можете скачивать файлы