Статистика раздачи
Размер:  746 MB   |    Зарегистрирован:  11 месяцев 14 дней   |    Скачан:  0 раз
DL-List: Нет

Полного источника не было: Никогда

 
     
 
 

Гость ®

Пол:
Не указан

-Пляжный бездельник / The Beach Bum-«You Gotta Go Low to Get High»- -Страна: США, Великобритания
Жанр: комедия
Год выпуска: 2019
Продолжительность: 01:30:34-Перевод: Профессиональный (дублированный) iTunes
Субтитры: нет
Оригинальная аудиодорожка: нет-Режиссер: Хармони Корин / Harmony Korine-В ролях: Мэттью МакКонахи, Снуп Догг, Айла Фишер, Мартин Лоуренс, Зак Эфрон, Джона Хилл, Стефания Оуэн, Донован Сент Ви Уильямс, Клинтон Арчамбо, Джерри Асчьоне, Джимми Баффетт-Описание: Отвязный тусовщик по кличке Лунный пёс плевать хотел на все общественные нормы. Все, что ему нужно, — это бабки на бухло и пляжные вечеринки. Но если он не допишет поэму, не получит наследства покойной жены. И стоит ли из-за этого париться?- - -Качество видео: BDRip-AVC / The.Beach.Bum.2019.1080p.BluRay.REMUX.AVC.DTS-HD.MA.5.1-FGT
Формат видео: MKV-Видео: MPEG-4 AVC, 764x320 (2.40:1), 23.976 fps, ~908 kbps avg, 0.155 bit/pixel
Аудио: 48 kHz, AC3 Dolby Digital, 2/0 (L,R) ch, ~192 kbps avg-

MediaInfo

Код:Complete name : D:\Раздача\Пляжный бездельник (2019) BDRip-AVC_ivanes.mkv
Format : Matroska
Format version : Version 2
File size : 746 MiB
Duration : 1 h 34 min
Overall bit rate : 1 101 kb/s
Movie name : Пляжный бездельник (2019) BDRip-AVC_ivanes
Encoded date : UTC 2019-06-19 15:10:02
Writing application : mkvmerge v4.4.0 ('Die Wiederkehr') сборка от Jan 3 2011 21:40:45
Writing library : libebml v1.0.0 + libmatroska v1.0.0
Cover : Yes
Attachments : cover.jpg
Video
ID : 1
Format : AVC
Format/Info : Advanced Video Codec
Format profile : High@L4.1
Format settings, CABAC : Yes
Format settings, RefFrames : 12 frames
Codec ID : V_MPEG4/ISO/AVC
Duration : 1 h 34 min
Bit rate : 908 kb/s
Width : 764 pixels
Height : 320 pixels
Display aspect ratio : 2.40:1
Frame rate mode : Constant
Frame rate : 23.976 (24000/1001) FPS
Color space : YUV
Chroma subsampling : 4:2:0
Bit depth : 8 bits
Scan type : Progressive
Bits/(Pixel*Frame) : 0.155
Stream size : 601 MiB (81%)
Title : Rip by ivanes
Writing library : x264 core 157 r2969 d4099dd
Encoding settings : cabac=1 / ref=12 / deblock=1:-2:-2 / analyse=0x3:0x113 / me=umh / subme=10 / psy=1 / psy_rd=1.00:0.00 / mixed_ref=1 / me_range=32 / chroma_me=1 / trellis=2 / 8x8dct=1 / cqm=0 / deadzone=21,11 / fast_pskip=0 / chroma_qp_offset=-2 / threads=12 / lookahead_threads=2 / sliced_threads=0 / nr=0 / decimate=1 / interlaced=0 / bluray_compat=0 / constrained_intra=0 / bframes=12 / b_pyramid=2 / b_adapt=2 / b_bias=0 / direct=1 / weightb=1 / open_gop=0 / weightp=2 / keyint=240 / keyint_min=23 / scenecut=40 / intra_refresh=0 / rc_lookahead=60 / rc=2pass / mbtree=0 / bitrate=908 / ratetol=1.0 / qcomp=0.60 / qpmin=0 / qpmax=69 / qpstep=4 / cplxblur=20.0 / qblur=0.5 / vbv_maxrate=50000 / vbv_bufsize=62500 / nal_hrd=none / filler=0 / ip_ratio=1.40 / pb_ratio=1.30 / aq=1:1.00
Default : Yes
Forced : No
Statistics Tags Issue : mkvmerge v10.0.0 ('To Drown In You') 64bit 2019-06-19 15:08:26 / mkvmerge v4.4.0 ('Die Wiederkehr') сборка от Jan 3 2011 21:40:45 2019-06-19 15:10:02
FromStats_BitRate : 907234
FromStats_Duration : 01:34:40.675000000
FromStats_FrameCount : 136200
FromStats_StreamSize : 644212881
Audio
ID : 2
Format : AC-3
Format/Info : Audio Coding 3
Format settings, Endianness : Big
Codec ID : A_AC3
Duration : 1 h 34 min
Bit rate mode : Constant
Bit rate : 192 kb/s
Channel(s) : 2 channels
Channel positions : Front: L R
Sampling rate : 48.0 kHz
Frame rate : 31.250 FPS (1536 SPF)
Bit depth : 16 bits
Compression mode : Lossy
Stream size : 130 MiB (17%)
Title : iTunes
Language : Russian
Service kind : Complete Main
Default : Yes
Forced : No

Скриншоты

[opentorrent.pro].t3779.torrent 
Торрент: Зарегистрирован [ 2019-06-20 16:23 ] · 523D079D9A0A325051EA7ABF6E36AB1B9EB332E9

Скачать .torrent

Скачать

15 KB

Статус: проверено
Скачан: 0 раз
Размер: 746 MB  ·  Тип торрента
terms.php
Показать сообщения:    

Текущее время: 04-Июн 22:19

Часовой пояс: UTC ± 0



Вы не можете начинать темы
Вы не можете отвечать на сообщения
Вы не можете редактировать свои сообщения
Вы не можете удалять свои сообщения
Вы не можете голосовать в опросах
Вы не можете прикреплять файлы к сообщениям
Вы можете скачивать файлы