Статистика раздачи
Размер:  1,45 GB   |    Зарегистрирован:  11 месяцев 4 дня   |    Скачан:  0 раз
DL-List: Нет
Сидов:  16  [  0 KB/s  ]   Личеров:  2  [  0 KB/s  ]  
 
     
 
 

солнышко ®

Пол:
Не указан
Стаж:
1 год 2 месяца
Сообщений:
723

Ведьмы
Hagazussa
Страна: Германия, Австрия
Жанр: драма, ужасы
Год выпуска: 2017
Продолжительность: 01:42:16
Перевод: Профессиональный (полное дублирование) [Новамедиа]
Субтитры: нет
Оригинальная аудиодорожка: нет
Режиссер: Лукас Файгелфелд / Lukas Feigelfeld
В ролях: Александра Квен, Селина Питер, Клаудия Мартини, Таня Петровски, Хаймон Мария Буттингер
Описание: Мать с дочерью живут в лесу вдалеке от деревни. Некоторые местные их боятся и считают ведьмами. Однажды мать заболевает странной болезнью.
Альтернативное описание: Темная легенда о молодой женщине Альбрун и ее борьбе за сохранение собственного здравомыслия, которая пытается исследовать тонкую грань между древней магией, верой и безумием в то время, когда языческие верования в ведьм и духов природы распространяли страх и ужас в умах сельского населения.

Автор рипа: stalkerok
Сэмпл
Качество видео: HDRip-AVC | Hagazussa 2017 1080p BluRay DTS x264-BiPOLAR
Формат видео: MKV
Видео кодек: AVC
Аудио кодек: AC3
Видео: AVC, 1585 Кбит/сек, 1152x480 (2.40:1), 24 кадр/сек
Аудио: AC3, 448 Кбит/сек, 48 КГц, 5.1 - русский
Навигация по главам: есть

x264/MediaInfo

---[Information] [19.06.2019 18:13:17] x264 [info]: frame I:735 Avg QP:10.67 size: 90981
---[Information] [19.06.2019 18:13:17] x264 [info]: frame P:32245 Avg QP:13.88 size: 21016
---[Information] [19.06.2019 18:13:17] x264 [info]: frame B:114298 Avg QP:15.20 size: 4120
General
Unique ID : 169298319216163644947757087779013114863 (0x7F5DAB959690428C766BD8762849BBEF)
Complete name : M:\temp\Hagazussa\Hagazussa.2017.HDRip.x264.Rus.stalkerok.New-Team.mkv
Format : Matroska
Format version : Version 4 / Version 2
File size : 1.45 GiB
Duration : 1 h 42 min
Overall bit rate : 2 034 kb/s
Movie name : Hagazussa (2017) | Rip by stalkerok
Encoded date : UTC 2019-06-19 15:17:46
Writing application : mkvmerge v33.1.0 ('Primrose') 64-bit
Writing library : libebml v1.3.7 + libmatroska v1.5.0
Video
ID : 1
Format : AVC
Format/Info : Advanced Video Codec
Format profile : High@L4.1
Format settings, CABAC : Yes
Format settings, ReFrames : 12 frames
Codec ID : V_MPEG4/ISO/AVC
Duration : 1 h 42 min
Bit rate : 1 585 kb/s
Width : 1 152 pixels
Height : 480 pixels
Display aspect ratio : 2.40:1
Frame rate mode : Constant
Frame rate : 24.000 FPS
Color space : YUV
Chroma subsampling : 4:2:0
Bit depth : 8 bits
Scan type : Progressive
Bits/(Pixel*Frame) : 0.119
Stream size : 1.13 GiB (78%)
Title : Hagazussa (2017) | Rip by stalkerok
Writing library : x264 core 157 r2969 d4099dd
Encoding settings : cabac=1 / ref=12 / deblock=1:-3:-2 / analyse=0x3:0x133 / me=umh / subme=10 / psy=1 / psy_rd=1.00:0.00 / mixed_ref=1 / me_range=32 / chroma_me=1 / trellis=2 / 8x8dct=1 / cqm=0 / deadzone=21,11 / fast_pskip=0 / chroma_qp_offset=-2 / threads=12 / lookahead_threads=3 / sliced_threads=0 / nr=0 / decimate=0 / interlaced=0 / bluray_compat=0 / constrained_intra=0 / bframes=14 / b_pyramid=2 / b_adapt=2 / b_bias=0 / direct=3 / weightb=1 / open_gop=0 / weightp=2 / keyint=240 / keyint_min=23 / scenecut=40 / intra_refresh=0 / rc_lookahead=60 / rc=2pass / mbtree=0 / bitrate=1585 / ratetol=1.0 / qcomp=0.65 / qpmin=0 / qpmax=69 / qpstep=4 / cplxblur=20.0 / qblur=0.5 / vbv_maxrate=50000 / vbv_bufsize=62500 / nal_hrd=none / filler=0 / ip_ratio=1.40 / pb_ratio=1.30 / aq=3:0.80 / zones=142006,147277,q=32
Default : Yes
Forced : No
Audio
ID : 2
Format : AC-3
Format/Info : Audio Coding 3
Mode extension : CM (complete main)
Format settings, Endianness : Big
Codec ID : A_AC3
Duration : 1 h 42 min
Bit rate mode : Constant
Bit rate : 448 kb/s
Channel(s) : 6 channels
Channel positions : Front: L C R, Side: L R, LFE
Sampling rate : 48.0 kHz
Frame rate : 31.250 FPS (1536 spf)
Compression mode : Lossy
Stream size : 328 MiB (22%)
Default : Yes
Forced : No
Menu
00:00:00.000 : en:00:00:00.000
00:10:20.042 : en:00:10:20.042
00:19:27.333 : en:00:19:27.333
00:26:03.208 : en:00:26:03.208
00:36:07.917 : en:00:36:07.917
00:45:29.458 : en:00:45:29.458
00:55:31.708 : en:00:55:31.708
01:05:47.667 : en:01:05:47.667
01:12:10.750 : en:01:12:10.750
01:23:14.000 : en:01:23:14.000
01:35:18.792 : en:01:35:18.792
01:38:38.000 : en:01:38:38.000

Скриншоты

[opentorrent.pro].t3780.torrent 
Торрент: Зарегистрирован [ 2019-06-20 16:23 ] · 1C4ED6C38F2F571B953EDD3B5CFB12D1E8E4C681

Скачать .torrent

Скачать

15 KB

Статус: проверено
Скачан: 0 раз
Размер: 1,45 GB  ·  Тип торрента
terms.php
Профиль [ЛС]
Показать сообщения:    

Текущее время: 25-Май 09:03

Часовой пояс: UTC ± 0



Вы не можете начинать темы
Вы не можете отвечать на сообщения
Вы не можете редактировать свои сообщения
Вы не можете удалять свои сообщения
Вы не можете голосовать в опросах
Вы не можете прикреплять файлы к сообщениям
Вы можете скачивать файлы