Статистика раздачи
Размер:  1,46 GB   |    Зарегистрирован:  1 год   |    Скачан:  0 раз
DL-List: Нет

Полного источника не было: Никогда

Личеров:  1  [  0 KB/s  ]  
 
     
 
 

karlll ®

Пол:
Не указан
Стаж:
1 год 3 месяца
Сообщений:
196

Моана / Moana
Страна: США
Жанр: мультфильм, комедия, приключения
Год выпуска: 2016
Продолжительность: 01:47:12

Перевод: Авторский (одноголосый закадровый) Юрий Живов
Субтитры: нет
Режиссёр: Рон Клементс / Ron Clements
Роли озвучивали: Аулии Кравалхо, Дуэйн Джонсон, Рэйчел Хаус, Темуэра Моррисон, Джемейн Клемент, Николь Шерзингер, Алан Тьюдик, Оскар Кайтли
Описание: Две тысячи лет назад 14-летняя дочь вождя отправилась через Тихий океан в поисках легендарного острова. В эпичном путешествии ее ждут встречи с мифологическими существами, полубогами и духами. Когда-то полубог Мауи присвоил себе древнейший артефакт – каменное сердце богини Те Фити. Проклятие разгневанной богини пало на Полинезийские острова. Юная Моана, дочь правителя и наследница островного престола, намеревается найти Мауи и вернуть артефакт, чтобы спасти родные земли – ведь никто, кроме нее, не осмеливается сделать это! Но отец Моаны, действующий правитель, слишком осторожен и запрещает своей драгоценной дочке все, а в особенности – заплывать в океан, потому что когда-то он сам едва не лишился в нем жизни. И если бы не бабушка Моаны, то принцесса осталась бы обычной девочкой, ждущей своего счастья на берегу…

Семпл: http://multi-up.com/1234485
Качество: HDRip (Исходник BDRip 1080p)
Формат: AVI
Видео: XviD 73, 720x304, (2,35:1), 23.976 fps, 1496 Кбит/с, 8 бит, 0.29 bit/pixel
Аудио: Русский (АС3, 6 ch (Front: L C R, Side: L R, LFE), 48,0 KHz, 448 Kbps

MediaInfo

Общее
Полное имя : D:\Фильмы на трекер\Моана (мультфильм, комедия, приключения 2016 год).avi
Формат : AVI
Формат/Информация : Audio Video Interleave
Размер файла : 1,46 Гбайт
Продолжительность : 1 ч. 47 м.
Общий поток : 1954 Кбит/сек
Программа кодирования : VirtualDubMod 1.5.10.2 (build 2540/release)
Библиотека кодирования : VirtualDubMod build 2540/release
Видео
Идентификатор : 0
Формат : MPEG-4 Visual
Профиль формата : Advanced Simple@L5
Параметр BVOP формата : 2
Параметр QPel формата : Нет
Параметр GMC формата : Без точки перехода
Параметр матрицы формата : Выборочная
Идентификатор кодека : XVID
Идентификатор кодека/Подсказка : XviD
Продолжительность : 1 ч. 47 м.
Битрейт : 1496 Кбит/сек
Ширина : 720 пикселей
Высота : 304 пикселя
Соотношение сторон : 2,35:1
Частота кадров : 23,976 (23976/1000) кадра/сек
Цветовое пространство : YUV
Субдискретизация насыщенности : 4:2:0
Битовая глубина : 8 бит
Тип развёртки : Прогрессивная
Метод сжатия : С потерями
Бит/(Пиксели*Кадры) : 0.285
Размер потока : 1,12 Гбайт (77%)
Библиотека кодирования : XviD 73
Аудио
Идентификатор : 1
Формат : AC-3
Формат/Информация : Audio Coding 3
Расширение режима : CM (complete main)
Параметр Endianness формата : Big
Идентификатор кодека : 2000
Продолжительность : 1 ч. 47 м.
Вид битрейта : Постоянный
Битрейт : 448 Кбит/сек
Каналы : 6 каналов
Расположение каналов : Front: L C R, Side: L R, LFE
Частота : 48,0 КГц
Частота кадров : 31,250 кадров/сек (1536 spf)
Метод сжатия : С потерями
Размер потока : 344 Мбайт (23%)
Выравнивание : Разделение по промежуткам
Продолжительность промежутка : 42 мс. (1,00 видеокадр)
Время предзагрузки промежутка : 500 мс.

Скриншот c названием фильма

[opentorrent.pro].t3800.torrent 
Торрент: Зарегистрирован [ 2019-06-21 16:49 ] · B2AB59E41B117CB8CA1E0164F4FD923A74D0D485

Скачать .torrent

Скачать

15 KB

Статус: проверено
Скачан: 0 раз
Размер: 1,46 GB  ·  Тип торрента
terms.php
Профиль [ЛС]
Показать сообщения:    

Текущее время: 09-Июл 10:44

Часовой пояс: UTC ± 0



Вы не можете начинать темы
Вы не можете отвечать на сообщения
Вы не можете редактировать свои сообщения
Вы не можете удалять свои сообщения
Вы не можете голосовать в опросах
Вы не можете прикреплять файлы к сообщениям
Вы можете скачивать файлы