Статистика раздачи
Размер:  1,46 GB   |    Зарегистрирован:  1 год   |    Скачан:  0 раз
DL-List: Нет

Полного источника не было: Никогда

 
     
 
 

karlll ®

Пол:
Не указан
Стаж:
1 год 3 месяца
Сообщений:
196

Кот раввина / The Rabbi's Cat / Le chat du rabbin
Страна: Франция, Австрия
Жанр: мультфильм, приключения, комедия
Год выпуска: 2011
Продолжительность: 01:30:03

Перевод: Авторский (одноголосый закадровый) Андрей Гаврилов
Субтитры: нет
Режиссёр: Антуан Делево / Antoine Delesvaux
Роли озвучивали: Матье Амальрик, Франсуа Дамиенс, Хафсия Херци, Карина Теста, Мохамед Феллаг, Эрик Элмоснино, Дэниэл Коэн, Жан Кальфон, Жоанн Сфар
Описание: Во французском Магрибе тихо-мирно живет раввин со своей дочерью, шумным попугаем и озорным котом. Но однажды кот раввина съедает попугая и... начинает говорить. Причем постоянно лжет, постепенно сводя с ума окружающих. Раввин решает обучить его Торе, а кот настаивает на изучении Кабаллы и просит провести ему бар-мицву. Доставка посылки из России усложняет ситуацию. Внутри находится ... мечта о мистическом утопическом городе - «африканском Иерусалиме». На пути говорящего кота-философа встречается русский художник-мечтатель и его загадочный переводчик: именно он увлечет героев в путешествие в поисках легендарного города. Начинаются необычайные приключения раввина, кота, старого мудрого арабского шейха, художника и русского эксцентричного миллиардера...

Семпл: http://multi-up.com/1234530
Качество: BDRip (Исходник BDRemux 1080p)
Формат: AVI
Видео: XviD 73, 720x384, (1,85:1), 23.976 fps, 1868 Кбит/с, 8 бит, 0.28 bit/pixel
Аудио: Русский (АС3, 6 ch (Front: L C R, Side: L R, LFE), 48,0 KHz, 448 Kbps

MediaInfo

Общее
Полное имя : D:\Фильмы на трекер\Кот раввина (мультфильм, приключения, комедия 2011 год).avi
Формат : AVI
Формат/Информация : Audio Video Interleave
Размер файла : 1,46 Гбайт
Продолжительность : 1 ч. 30 м.
Общий поток : 2325 Кбит/сек
Программа кодирования : VirtualDubMod 1.5.10.2 (build 2540/release)
Библиотека кодирования : VirtualDubMod build 2540/release
Видео
Идентификатор : 0
Формат : MPEG-4 Visual
Профиль формата : Advanced Simple@L5
Параметр BVOP формата : 2
Параметр QPel формата : Нет
Параметр GMC формата : Без точки перехода
Параметр матрицы формата : Выборочная
Идентификатор кодека : XVID
Идентификатор кодека/Подсказка : XviD
Продолжительность : 1 ч. 30 м.
Битрейт : 1868 Кбит/сек
Ширина : 720 пикселей
Высота : 384 пикселя
Соотношение сторон : 1,85:1
Частота кадров : 23,976 (23976/1000) кадра/сек
Цветовое пространство : YUV
Субдискретизация насыщенности : 4:2:0
Битовая глубина : 8 бит
Тип развёртки : Прогрессивная
Метод сжатия : С потерями
Бит/(Пиксели*Кадры) : 0.282
Размер потока : 1,17 Гбайт (80%)
Библиотека кодирования : XviD 73
Аудио
Идентификатор : 1
Формат : AC-3
Формат/Информация : Audio Coding 3
Расширение режима : CM (complete main)
Параметр Endianness формата : Big
Идентификатор кодека : 2000
Продолжительность : 1 ч. 30 м.
Вид битрейта : Постоянный
Битрейт : 448 Кбит/сек
Каналы : 6 каналов
Расположение каналов : Front: L C R, Side: L R, LFE
Частота : 48,0 КГц
Частота кадров : 31,250 кадров/сек (1536 spf)
Метод сжатия : С потерями
Размер потока : 289 Мбайт (19%)
Выравнивание : Разделение по промежуткам
Продолжительность промежутка : 42 мс. (1,00 видеокадр)
Время предзагрузки промежутка : 500 мс.

Скриншот c названием фильма

Скриншоты

[opentorrent.pro].t3801.torrent 
Торрент: Зарегистрирован [ 2019-06-21 16:49 ] · B9D0EFD72A27FECCB5A8F42DC1B2D0F222940F11

Скачать .torrent

Скачать

15 KB

Статус: проверено
Скачан: 0 раз
Размер: 1,46 GB  ·  Тип торрента
terms.php
Профиль [ЛС]
Показать сообщения:    

Текущее время: 09-Июл 10:24

Часовой пояс: UTC ± 0



Вы не можете начинать темы
Вы не можете отвечать на сообщения
Вы не можете редактировать свои сообщения
Вы не можете удалять свои сообщения
Вы не можете голосовать в опросах
Вы не можете прикреплять файлы к сообщениям
Вы можете скачивать файлы