Статистика раздачи
Размер:  1,46 GB   |    Зарегистрирован:  1 год 1 месяц   |    Скачан:  0 раз
DL-List: Нет

Полного источника не было: Никогда

 
     
 
 

karlll ®

Пол:
Не указан
Стаж:
1 год 4 месяца
Сообщений:
196

Монстры на каникулах / Отель Трансильвания / Hotel Transylvania
Страна: США
Жанр: мультфильм, комедия, семейный
Год выпуска: 2012
Продолжительность: 01:31:31
Перевод: Авторский (одноголосый закадровый) Андрей Гаврилов
Субтитры: нет
Режиссёр: Геннадий Тартаковский / Genndy Tartakovsky
Роли озвучивали: Адам Сэндлер, Энди Сэмберг, Селена Гомес, Кевин Джеймс, Фрэн Дрешер, Стив Бушеми, Молли Шеннон, Дэвид Спейд, Си-Ло
Описание: Мэйвис единственная и горячо любимая дочь графа Дракулы и Марты. Она родилась 28 сентября 1895 года. Вскоре после рождения у Мэйвиса и Дэйва случилась трагедия. На уютный домик семейства напали крестьяне и сожгли его. В этом огне мать девочки погибла. По завету жены, Дракула отстроил огромный особняк, огороженный от мира непроходимыми лесами, привидениями, зомби и прочей нечистью, в котором открыл гостиницу свободную от людей "Отель Трансильвания". Милая Мэйвис, как и отец, уродилась вампиром, с острыми зубами и способностью, по желанию, оборачиваться летучей мышью. Как и Дракула, она не пила человеческую кровь, а питалась витаминными заменителями крови. И как все вампиры, не переносила солнечный свет, поэтому вела исключительно ночной образ жизни. Когда гостиница была построена, Мэйвис с отцом переехали в неё, наняли персонал. И раз в год, на день рождения дочки, Дракула созывал гостей....

Семпл: http://multi-up.com/1234573
Качество: BDRip (Исходник BDRemux 1080p)
Формат: AVI
Видео: XviD 73, 720x384, (1,85:1), 23.976 fps, 1931 Кбит/с, 8 бит, 0.29 bit/pixel
Аудио: Русский (АС3, 6 ch (Front: L C R, Side: L R, LFE), 48,0 KHz, 448 Kbps

MediaInfo

Общее
Полное имя : D:\Фильмы на трекер\Монстры на каникулах (мультфильм, комедия, семейный 2012 год).avi
Формат : AVI
Формат/Информация : Audio Video Interleave
Размер файла : 1,46 Гбайт
Продолжительность : 1 ч. 31 м.
Общий поток : 2287 Кбит/сек
Программа кодирования : VirtualDubMod 1.5.10.2 (build 2540/release)
Библиотека кодирования : VirtualDubMod build 2540/release
Видео
Идентификатор : 0
Формат : MPEG-4 Visual
Профиль формата : Advanced Simple@L5
Параметр BVOP формата : 2
Параметр QPel формата : Нет
Параметр GMC формата : Без точки перехода
Параметр матрицы формата : Выборочная
Идентификатор кодека : XVID
Идентификатор кодека/Подсказка : XviD
Продолжительность : 1 ч. 31 м.
Битрейт : 1931 Кбит/сек
Ширина : 720 пикселей
Высота : 384 пикселя
Соотношение сторон : 1,85:1
Частота кадров : 23,976 (23976/1000) кадра/сек
Цветовое пространство : YUV
Субдискретизация насыщенности : 4:2:0
Битовая глубина : 8 бит
Тип развёртки : Прогрессивная
Метод сжатия : С потерями
Бит/(Пиксели*Кадры) : 0.291
Размер потока : 1,23 Гбайт (84%)
Библиотека кодирования : XviD 73
Аудио
Идентификатор : 1
Формат : AC-3
Формат/Информация : Audio Coding 3
Расширение режима : CM (complete main)
Параметр Endianness формата : Big
Идентификатор кодека : 2000
Продолжительность : 1 ч. 11 м.
Продолжительность оригинала : 1 ч. 11 м.
Вид битрейта : Постоянный
Битрейт : 448 Кбит/сек
Каналы : 6 каналов
Расположение каналов : Front: L C R, Side: L R, LFE
Частота : 48,0 КГц
Частота кадров : 31,250 кадров/сек (1536 spf)
Метод сжатия : С потерями
Размер потока : 228 Мбайт (15%)
Выравнивание : Разделение по промежуткам
Продолжительность промежутка : 54 мс. (1,29 видеокадр)
Время предзагрузки промежутка : 500 мс.

Скриншот c названием фильма

Скриншоты

[opentorrent.pro].t3802.torrent 
Торрент: Зарегистрирован [ 2019-06-21 16:49 ] · 37F5C974D7DA11BD5EBF41A9DAAB49C142D831A2

Скачать .torrent

Скачать

15 KB

Статус: проверено
Скачан: 0 раз
Размер: 1,46 GB  ·  Тип торрента
terms.php
Профиль [ЛС]
Показать сообщения:    

Текущее время: 05-Авг 01:11

Часовой пояс: UTC ± 0



Вы не можете начинать темы
Вы не можете отвечать на сообщения
Вы не можете редактировать свои сообщения
Вы не можете удалять свои сообщения
Вы не можете голосовать в опросах
Вы не можете прикреплять файлы к сообщениям
Вы можете скачивать файлы