Статистика раздачи
Размер:  1,46 GB   |    Зарегистрирован:  1 год   |    Скачан:  0 раз
DL-List: Нет

Полного источника не было: Никогда

 
     
 
 

karlll ®

Пол:
Не указан
Стаж:
1 год 4 месяца
Сообщений:
196

Дом - монстр / Monster House
Страна: США
Жанр: мультфильм, комедия, детектив
Год выпуска: 2006
Продолжительность: 01:30:38
Перевод: Авторский (одноголосый закадровый) Юрий Сербин
Субтитры: нет
Режиссёр: Джил Кенан / Gil Kenan
Роли озвучивали: Райан Ньюман, Стив Бушеми, Митчел Муссо, Кэтрин О’Хара, Фред Уиллард, Сэм Лернер, Вуди Шульц, Йен МакКоннел, Мэгги Джилленхол
Описание: Мальчик Ди Джей долгое время ведет наблюдение за зловещим домом по соседству. Однажды герой заметил, как строение проглотило игрушку, забытую на газоне. Затем ненасытное здание захотело сожрать лучшего друга по прозвищу "Заглодыш". Проживающий в ней старик Небберкрякер признался, что в здании поселился дух жены, некогда скончавшейся в результате несчастного случая. При жизни тучная женщина обладала ненасытным аппетитом, поэтому уже более четырех десятков лет особняк поедает людей... Дети разработали план, как уничтожить заколдованное строение. Удастся ли осуществить его...?

Семпл: http://multi-up.com/1234816
Качество: BDRip (Исходник BDRemux 1080p)
Формат: AVI
Видео: XviD 73, 720x304, (2,35:1), 23.976 fps, 1853 Кбит/с, 8 бит, 0.35 bit/pixel
Аудио: Русский (АС3, 6 ch (Front: L C R, Side: L R, LFE), 48,0 KHz, 448 Kbps

MediaInfo

Общее
Полное имя : D:\Фильмы на трекер\Дом - монстр (мультфильм, комедия, детектив 2006 год).avi
Формат : AVI
Формат/Информация : Audio Video Interleave
Размер файла : 1,46 Гбайт
Продолжительность : 1 ч. 30 м.
Общий поток : 2310 Кбит/сек
Программа кодирования : VirtualDubMod 1.5.10.3 | www.virtualdub-fr.org || (build 2550/release)
Библиотека кодирования : VirtualDubMod build 2550/release
Видео
Идентификатор : 0
Формат : MPEG-4 Visual
Профиль формата : Advanced Simple@L5
Параметр BVOP формата : 2
Параметр QPel формата : Нет
Параметр GMC формата : Без точки перехода
Параметр матрицы формата : Выборочная
Идентификатор кодека : XVID
Идентификатор кодека/Подсказка : XviD
Продолжительность : 1 ч. 30 м.
Битрейт : 1853 Кбит/сек
Ширина : 720 пикселей
Высота : 304 пикселя
Соотношение сторон : 2,35:1
Частота кадров : 23,976 (23976/1000) кадра/сек
Цветовое пространство : YUV
Субдискретизация насыщенности : 4:2:0
Битовая глубина : 8 бит
Тип развёртки : Прогрессивная
Метод сжатия : С потерями
Бит/(Пиксели*Кадры) : 0.353
Размер потока : 1,17 Гбайт (80%)
Библиотека кодирования : XviD 73
Аудио
Идентификатор : 1
Формат : AC-3
Формат/Информация : Audio Coding 3
Расширение режима : CM (complete main)
Параметр Endianness формата : Big
Идентификатор кодека : 2000
Продолжительность : 1 ч. 30 м.
Вид битрейта : Постоянный
Битрейт : 448 Кбит/сек
Каналы : 6 каналов
Расположение каналов : Front: L C R, Side: L R, LFE
Частота : 48,0 КГц
Частота кадров : 31,250 кадров/сек (1536 spf)
Метод сжатия : С потерями
Размер потока : 290 Мбайт (19%)
Выравнивание : Разделение по промежуткам
Продолжительность промежутка : 42 мс. (1,00 видеокадр)
Время предзагрузки промежутка : 500 мс.

Скриншот c названием фильма

Скриншоты

[opentorrent.pro].t3803.torrent 
Торрент: Зарегистрирован [ 2019-06-21 16:49 ] · 5D12F9247D94D92C597BDBCED851B3E11789DBB6

Скачать .torrent

Скачать

15 KB

Статус: проверено
Скачан: 0 раз
Размер: 1,46 GB  ·  Тип торрента
terms.php
Профиль [ЛС]
Показать сообщения:    

Текущее время: 13-Июл 12:37

Часовой пояс: UTC ± 0



Вы не можете начинать темы
Вы не можете отвечать на сообщения
Вы не можете редактировать свои сообщения
Вы не можете удалять свои сообщения
Вы не можете голосовать в опросах
Вы не можете прикреплять файлы к сообщениям
Вы можете скачивать файлы