Статистика раздачи
Размер:  6,45 GB   |    Зарегистрирован:  1 год 1 месяц   |    Скачан:  0 раз
DL-List: Нет
Сидов:  319  [  0 KB/s  ]   Личеров:  62  [  0 KB/s  ]  
 
     
 
 

Гость ®

Пол:
Не указан

А.Л.Ж.И.Р.- Год выпуска: 2019
Производство: Кинокомпания «Киноград»
Жанр: Драма, история
Продолжительность: 00:48:39
Субтитры: нет-Режиссёр: Александр Касаткин-В ролях: Дарья Екамасова, Екатерина Гусева, Кирилл Плетнёв, Алексей Шевченков, Михаил Евланов, Клавдия Коршунова, Владимир Мишуков, Кирилл Полухин, Ольга Лапшина, Максим Сапрыкин, Дина Тасбулатова, Кирилл Назаров, Игорь Грабузов, Марина Петренко, Анна Жара, Наталья Романычева, Екатерина Зиновьева, Екатерина Агеева, Инна Сухорецкая, Наталья Аринбасарова, Полина Сыркина, Анастасия Будкина, Анатолий Голуб, Марина Денисова, Андрей Шарыпов, Андрей Пензин, Геннадий Яковлев, Надежда Горелова, Андрей Золотухин, Азамат Нигманов, Кристина Овчаренко, Галина Тигонен-Описание: Фильм рассказывает об одном из самых суровых сталинских женских лагерей, существовавших в СССР. В «Акмолинском Лагере Жен Изменников Родины» содержались более восьми тысяч женщин, среди которых сестра маршала Тухачевского, жены писателей Бориса Пильняка, Аркадия Гайдара, матери Булата Окуджавы и Майи Плисецкой и другие. Вина всех этих женщин заключалась лишь в том, что они ЧСИРки — Члены Семей Изменников Родины. В центре сюжета жена авиаконструктора Ольга Павлова, арестованная как ЧСИР, и София Тер-Ашатурова — выдающаяся оперная певица, задержанная по доносу, которых судьба свела в арестантском поезде.- -Качество: SATRip
Формат: AVI
Видео кодек: XviD
Аудио кодек: AC3
Видео: 720x400 (16:9), 25.000 fps, XviD, 1523 Kbps, 0.21 bit/pixel
Аудио: 48 kHz, MP3, 2 ch, 192 Kbps
Реклама: Нет-Предыдущие и альтернативные раздачи-

Релиз

Рип: 25Kuzmich
Без Рекламы

MI

General
Complete name : Downloads\Alzhir.2018.XviD.SATRip.25Kuzmich\Alzhir.e01.XviD.SATRip.25Kuzmich.avi
Format : AVI
Format/Info : Audio Video Interleave
File size : 600 MiB
Duration : 48mn 39s
Overall bit rate : 1 725 Kbps
Writing application : VirtualDubMod 1.5.10.3 | www.virtualdub-fr.org || (build 2550/release)
Writing library : VirtualDubMod build 2550/release
Video #0
ID : 0
Format : MPEG-4 Visual
Format profile : Advanced Simple@L5
Format settings, BVOP : 1
Format settings, QPel : No
Format settings, GMC : No warppoints
Format settings, Matrix : Default (MPEG)
Codec ID : XVID
Codec ID/Hint : XviD
Duration : 48mn 39s
Bit rate : 1 523 Kbps
Width : 720 pixels
Height : 400 pixels
Display aspect ratio : 16:9
Frame rate : 25.000 fps
Color space : YUV
Chroma subsampling : 4:2:0
Bit depth : 8 bits
Scan type : Progressive
Compression mode : Lossy
Bits/(Pixel*Frame) : 0.211
Stream size : 530 MiB (88%)
Writing library : XviD 73
Audio #1
ID : 1
Format : MPEG Audio
Format version : Version 1
Format profile : Layer 3
Mode : Joint stereo
Mode extension : MS Stereo
Codec ID : 55
Codec ID/Hint : MP3
Duration : 48mn 39s
Bit rate mode : Constant
Bit rate : 192 Kbps
Channel(s) : 2 channels
Sampling rate : 48.0 KHz
Compression mode : Lossy
Stream size : 66.8 MiB (11%)
Alignment : Aligned on interleaves
Interleave, duration : 40 ms (1.00 video frame)
Interleave, preload duration : 504 ms
Writing library : LAME3.99r
Encoding settings : -m j -V 4 -q 2 -lowpass 18.6 -b 192

Скриншоты

Внимание! Раздача ведётся путём добавления новых серий:

(1) остановить скачивание,
(2) удалить старый торрент у себя из клиента (старые серии удалять не надо),
(3) скачать новый торрент и запустить его у себя в клиенте вместо старого, при этом указать клиенту путь в старую папку куда и должно происходить скачивание новых серий.
Ваш клиент при этом должен произвести хеширование (проверку) старой папки (если не производит сам - помогите ему сделать это), и будет докачивать только те серии которых у вас ещё нет. Старые серии при этом не удаляются, а продолжают раздаваться!
Eсли вы уже удалили старые серии, то предотвратить повторную закачку старых серий можно, отжав галочку в соответсвующих местах при запуске нового торрента. По возможности, желательно не удалять старые серии как можно дольше чтобы релизёр не столько продолжал раздавать старые серии, а смог сконцентрироваться на новых
.
[opentorrent.pro].t3804.torrent 
Торрент: Зарегистрирован [ 2019-06-21 16:49 ] · 080AD20B2E08EB18E20DDA8C506722AD2D7F4554

Скачать .torrent

Скачать

33 KB

Статус: проверено
Скачан: 0 раз
Размер: 6,45 GB  ·  Тип торрента
terms.php
Показать сообщения:    

Текущее время: 08-Авг 18:17

Часовой пояс: UTC ± 0



Вы не можете начинать темы
Вы не можете отвечать на сообщения
Вы не можете редактировать свои сообщения
Вы не можете удалять свои сообщения
Вы не можете голосовать в опросах
Вы не можете прикреплять файлы к сообщениям
Вы можете скачивать файлы