Статистика раздачи
Размер:  1,46 GB   |    Зарегистрирован:  1 год   |    Скачан:  0 раз
DL-List: Нет

Полного источника не было: Никогда

 
     
 
 

karlll ®

Пол:
Не указан
Стаж:
1 год 3 месяца
Сообщений:
196

Артур и месть Урдалака / Arthur et la vengeance de Maltazard / Arthur And The Revenge Of Maltazard
Страна: Франция
Жанр: мультфильм, приключения, семейный
Год выпуска: 2009
Продолжительность: 01:33:41
Перевод: Авторский (одноголосый закадровый) Сергей Визгунов
Субтитры: нет
Режиссёр: Люк Бессон / Luc Besson
Роли озвучивали: Селена Гомес, Фредди Хаймор, Стэйси Фергюсон, Снуп Догг, Миа Фэрроу, Джимми Фэллон, Уилл Ай Эм, Омар Сай, Логан Миллер
Описание: Отважный Артур готов вновь отправиться к своим друзьям-минипутам, ведь сегодня наступает та самая волшебная ночь, в которую путешествие становится возможным. Мальчика ждет горькое разочарование - из бабушкиного дома нужно уезжать прямо сейчас, такова воля отца. Делать нечего - Артур собирает вещи, но неожиданно ему приходит письмо из страны минипутов с одним только словом "SOS". Не сомневаясь ни минуты, герой отправляется на помощь, уверенный в том, что друзьям грозит беда. Но по прибытии он выясняет, что сообщение было вовсе не от них. Тогда кто же заманил Артура в страну минипутов...?
Семпл: http://multi-up.com/1234922
Качество: BDRip (Исходник BDRemux 1080p)
Формат: AVI
Видео: XviD 73, 720x304, (2,35:1), 23.976 fps, 1777 Кбит/с, 8 бит, 0.33 bit/pixel
Аудио: Русский (АС3, 6 ch (Front: L C R, Side: L R, LFE), 48,0 KHz, 448 Kbps

MediaInfo

Общее
Полное имя : D:\Фильмы на трекер\Артур и месть Урдалака (мультфильм, приключения 2009 год).avi
Формат : AVI
Формат/Информация : Audio Video Interleave
Размер файла : 1,46 Гбайт
Продолжительность : 1 ч. 33 м.
Общий поток : 2234 Кбит/сек
Программа кодирования : VirtualDubMod 1.5.10.2 (build 2540/release)
Библиотека кодирования : VirtualDubMod build 2540/release
Видео
Идентификатор : 0
Формат : MPEG-4 Visual
Профиль формата : Advanced Simple@L5
Параметр BVOP формата : 2
Параметр QPel формата : Нет
Параметр GMC формата : Без точки перехода
Параметр матрицы формата : Выборочная
Идентификатор кодека : XVID
Идентификатор кодека/Подсказка : XviD
Продолжительность : 1 ч. 33 м.
Битрейт : 1777 Кбит/сек
Ширина : 720 пикселей
Высота : 304 пикселя
Соотношение сторон : 2,35:1
Частота кадров : 23,976 (23976/1000) кадра/сек
Цветовое пространство : YUV
Субдискретизация насыщенности : 4:2:0
Битовая глубина : 8 бит
Тип развёртки : Прогрессивная
Метод сжатия : С потерями
Бит/(Пиксели*Кадры) : 0.339
Размер потока : 1,16 Гбайт (80%)
Библиотека кодирования : XviD 73
Аудио
Идентификатор : 1
Формат : AC-3
Формат/Информация : Audio Coding 3
Расширение режима : CM (complete main)
Параметр Endianness формата : Big
Идентификатор кодека : 2000
Продолжительность : 1 ч. 33 м.
Вид битрейта : Постоянный
Битрейт : 448 Кбит/сек
Каналы : 6 каналов
Расположение каналов : Front: L C R, Side: L R, LFE
Частота : 48,0 КГц
Частота кадров : 31,250 кадров/сек (1536 spf)
Метод сжатия : С потерями
Размер потока : 300 Мбайт (20%)
Выравнивание : Разделение по промежуткам
Продолжительность промежутка : 42 мс. (1,00 видеокадр)
Время предзагрузки промежутка : 500 мс.

Скриншот c названием фильма

Скриншоты

[opentorrent.pro].t3805.torrent 
Торрент: Зарегистрирован [ 2019-06-21 16:49 ] · D8BB64C24298CB6A88B03D5864EE009C2D0CE4EA

Скачать .torrent

Скачать

15 KB

Статус: проверено
Скачан: 0 раз
Размер: 1,46 GB  ·  Тип торрента
terms.php
Профиль [ЛС]
Показать сообщения:    

Текущее время: 02-Июл 09:45

Часовой пояс: UTC ± 0



Вы не можете начинать темы
Вы не можете отвечать на сообщения
Вы не можете редактировать свои сообщения
Вы не можете удалять свои сообщения
Вы не можете голосовать в опросах
Вы не можете прикреплять файлы к сообщениям
Вы можете скачивать файлы