Статистика раздачи
Размер:  1,36 GB   |    Зарегистрирован:  1 год   |    Скачан:  0 раз
DL-List: Нет

Полного источника не было: Никогда

 
     
 
 

karlll ®

Пол:
Не указан
Стаж:
1 год 3 месяца
Сообщений:
196

Черный котел / The Black Cauldron
Страна: США
Жанр: мультфильм, приключения, семейный
Год выпуска: 1985
Продолжительность: 01:20:08
Перевод: Авторский (одноголосый закадровый) Юрий Живов
Субтитры: нет
Режиссёр: Тед Берман / Ted Berman
Роли озвучивали: Марк Олтмэн, Джон Байнер, Найджел Хоторн, Фредди Джонс, Анна Штукатурова, Артур Мэлет, Эда Мерин, Брэндон Колл, Грегори Левинсон
Описание: Юный свинопас по имени Тэрон мечтает о приключениях великого воина и вот однажды его мечта осуществляется. Добрый волшебник Доллбан рассказывает ему о смутных временах, когда в Придейне жил жестокий король. Люди, уставшие от бесчинств их правителя, сварили его в Черном котле. Теперь этот котел хранит в себе всю злую энергию короля и если он попадет не в те руки, то мир, скорее всего, погрузится во тьму. Найти этот котел можно только при помощи свинки Хан Вен и Доллбан поручает Тэрону спрятать ее от Рогатого короля, который намерен высвободить заточенное в Черном котле зло.

Семпл: http://multi-up.com/1234987
Качество: WEB-DLRip (Исходник WEB-DL 1080p)
Формат: AVI
Видео: XviD 73, 704x304, (2,35:1), 23,976 fps, 2043 Кбит/с, 8 бит
Аудио: Русский (АС3, 6 ch (Front: L C R, Side: L R, LFE), 48,0 KHz, 384 Kbps)

MediaInfo

Общее
Полное имя : D:\Фильмы на трекер\Черный котел (мультфильм, приключения 1985 год).avi
Формат : AVI
Формат/Информация : Audio Video Interleave
Размер файла : 1,36 Гбайт
Продолжительность : 1 ч. 20 м.
Общий поток : 2436 Кбит/сек
Программа кодирования : VirtualDubMod 1.5.10.2 (build 2540/release)
Библиотека кодирования : VirtualDubMod build 2540/release
Видео
Идентификатор : 0
Формат : MPEG-4 Visual
Профиль формата : Advanced Simple@L5
Параметр BVOP формата : 2
Параметр QPel формата : Нет
Параметр GMC формата : Без точки перехода
Параметр матрицы формата : Выборочная
Идентификатор кодека : XVID
Идентификатор кодека/Подсказка : XviD
Продолжительность : 1 ч. 20 м.
Битрейт : 2043 Кбит/сек
Ширина : 704 пикселя
Высота : 304 пикселя
Соотношение сторон : 2,35:1
Частота кадров : 23,976 (23976/1000) кадра/сек
Цветовое пространство : YUV
Субдискретизация насыщенности : 4:2:0
Битовая глубина : 8 бит
Тип развёртки : Прогрессивная
Метод сжатия : С потерями
Бит/(Пиксели*Кадры) : 0.398
Размер потока : 1,14 Гбайт (84%)
Библиотека кодирования : XviD 73
Аудио
Идентификатор : 1
Формат : AC-3
Формат/Информация : Audio Coding 3
Расширение режима : CM (complete main)
Параметр Endianness формата : Big
Идентификатор кодека : 2000
Продолжительность : 1 ч. 20 м.
Вид битрейта : Постоянный
Битрейт : 384 Кбит/сек
Каналы : 6 каналов
Расположение каналов : Front: L C R, Side: L R, LFE
Частота : 48,0 КГц
Частота кадров : 31,250 кадров/сек (1536 spf)
Метод сжатия : С потерями
Размер потока : 220 Мбайт (16%)
Выравнивание : Разделение по промежуткам
Продолжительность промежутка : 42 мс. (1,00 видеокадр)
Время предзагрузки промежутка : 500 мс.

Скриншот c названием фильма

Скриншоты

[opentorrent.pro].t3807.torrent 
Торрент: Зарегистрирован [ 2019-06-21 16:49 ] · 4848FDB2A2354B72E5469D1CE11EBCB30C19147C

Скачать .torrent

Скачать

14 KB

Статус: проверено
Скачан: 0 раз
Размер: 1,36 GB  ·  Тип торрента
terms.php
Профиль [ЛС]
Показать сообщения:    

Текущее время: 09-Июл 11:24

Часовой пояс: UTC ± 0



Вы не можете начинать темы
Вы не можете отвечать на сообщения
Вы не можете редактировать свои сообщения
Вы не можете удалять свои сообщения
Вы не можете голосовать в опросах
Вы не можете прикреплять файлы к сообщениям
Вы можете скачивать файлы