Статистика раздачи
Размер:  747 MB   |    Зарегистрирован:  1 год   |    Скачан:  0 раз
DL-List: Нет
Сидов:  4  [  0 KB/s  ]  
 
     
 
 

солнышко ®

Пол:
Не указан
Стаж:
1 год 3 месяца
Сообщений:
723

Дикий / Braven
Страна: Канада
Жанр: боевик, драма
Год выпуска: 2018
Продолжительность: 01:33:36
Перевод: Профессиональный (дублированный) Лицензия R5
Субтитры: нет
Режиссер: Лин Одинг / Lin Oeding
В ролях: Джейсон Момоа
Гаррет Диллахант
Джилл Вагнер
Стивен Лэнг
Саша Россоф
Сала Бэйкер
Фрейзер Айтчесон
Тич Грант
Гленн Эннис
Тодд Скотт
Описание: Лесник Джо Брейвен живет с семьей в горах на границе США и Канады. Однажды его тихую и размеренную жизнь нарушает опасная банда наркоторговцев, которая еще не знает, что эта часть лесной глуши занята. И занята не дикими животными, а сильным и бескомпромиссным человеком, ради семьи готовым на все…
Доп. информация: https://www.kinopoisk.ru/film/940531/
Сэмпл: http://sendfile.su/1501506
Качество видео: HDRip найден в сети
Формат видео: AVI
Видео: 688x288 (2.39:1), 23.976 fps, XviD build 73 ~981 kbps avg, 0.21 bit/pixel
Аудио: 48 kHz, MPEG Layer 3, 2 ch, ~128.00 kbps avg

MediaInfo

General
Complete name : D:\Braven.2018.BDRip.745MB.R5.MegaPeer.avi
Format : AVI
Format/Info : Audio Video Interleave
File size : 747 MiB
Duration : 1h 33mn
Overall bit rate : 1 115 Kbps
Video
ID : 0
Format : MPEG-4 Visual
Format profile : Advanced Simple@L5
Format settings, BVOP : 1
Format settings, QPel : No
Format settings, GMC : No warppoints
Format settings, Matrix : Custom
Codec ID : XVID
Codec ID/Hint : XviD
Duration : 1h 33mn
Bit rate : 981 Kbps
Width : 688 pixels
Height : 288 pixels
Display aspect ratio : 2.40:1
Frame rate : 23.976 fps
Color space : YUV
Chroma subsampling : 4:2:0
Bit depth : 8 bits
Scan type : Progressive
Compression mode : Lossy
Bits/(Pixel*Frame) : 0.207
Stream size : 657 MiB (88%)
Writing library : XviD 73
Audio
ID : 1
Format : MPEG Audio
Format version : Version 1
Format profile : Layer 3
Codec ID : 55
Codec ID/Hint : MP3
Duration : 1h 33mn
Bit rate mode : Constant
Bit rate : 128 Kbps
Channel count : 2 channels
Sampling rate : 48.0 KHz
Compression mode : Lossy
Stream size : 85.7 MiB (11%)
Alignment : Aligned on interleaves
Interleave, duration : 167 ms (4.00 video frames)
Interleave, preload duration : 216 ms
Writing library : LAME3.99r
Encoding settings : -m s -V 4 -q 2 -lowpass 17 -b 128

Скриншот c названием фильма

Скриншоты

[opentorrent.pro].t3816.torrent 
Торрент: Зарегистрирован [ 2019-06-21 16:49 ] · E50C8B9BA8BD37F55154013A0C9FBE7462FADAB2

Скачать .torrent

Скачать

15 KB

Статус: проверено
Скачан: 0 раз
Размер: 747 MB  ·  Тип торрента
terms.php
Профиль [ЛС]
Показать сообщения:    

Текущее время: 07-Июл 06:23

Часовой пояс: UTC ± 0



Вы не можете начинать темы
Вы не можете отвечать на сообщения
Вы не можете редактировать свои сообщения
Вы не можете удалять свои сообщения
Вы не можете голосовать в опросах
Вы не можете прикреплять файлы к сообщениям
Вы можете скачивать файлы