Статистика раздачи
Размер:  747 MB   |    Зарегистрирован:  1 год   |    Скачан:  0 раз
DL-List: Нет
Сидов:  75  [  0 KB/s  ]   Личеров:  7  [  0 KB/s  ]  
 
     
 
 

Гость ®

Пол:
Не указан

Битва за Землю / Captive State
Страна: США
Жанр: фантастика, триллер
Год выпуска: 2019
Продолжительность: 01:49:34
Перевод: Профессиональный (многоголосый закадровый) CВ Студия
Субтитры: нет
Режиссер: Руперт Уайатт / Rupert Wyatt
В ролях: Джон Гудман
Вера Фармига
Эштон Сандерс
Джонатан Мэйджерс
Кевин Данн
Джеймс Рэнсон
Алан Рак
Мадлен Брюэр
Машин Ган Келли
Кевин Дж. О’Коннор
Описание: Мы всегда знали, что не одни в этом мире. Мы отправляли сигналы в надежде получить ответ. И нас услышали. За считанные часы пришельцы захватили Землю и установили свое правительство. Сотовая связь и интернет отключены, электронные библиотеки уничтожены. Большой инопланетный брат следит за каждым, его дроны-охотники днем и ночью патрулируют улицы новой Земли. Мы — последние, те, у кого нет имени, невидимые для системы. Сегодня мы вернем нашу планету.
Доп. информация: https://www.kinopoisk.ru/film/1009739/
Сэмпл: http://sendfile.su/1501510
Качество видео: HDRip найден в сети
Формат видео: AVI
Видео: 720x304 (2.37:1), 23.976 fps, XviD build 73 ~815 kbps avg, 0.16 bit/pixel
Аудио: 48 kHz, MPEG Layer 3, 2 ch, ~128.00 kbps avg

MediaInfo

General
Complete name : D:\Captive.State.2019.HDRip.Portablius.avi
Format : AVI
Format/Info : Audio Video Interleave
File size : 747 MiB
Duration : 1h 49mn
Overall bit rate : 953 Kbps
Writing application : VirtualDubMod 1.5.10.3 | www.virtualdub-fr.org || (build 2550/release)
Writing library : VirtualDubMod build 2550/release
Video
ID : 0
Format : MPEG-4 Visual
Format profile : Advanced Simple@L5
Format settings, BVOP : 1
Format settings, QPel : No
Format settings, GMC : No warppoints
Format settings, Matrix : Custom
Codec ID : XVID
Codec ID/Hint : XviD
Duration : 1h 49mn
Bit rate : 816 Kbps
Width : 720 pixels
Height : 304 pixels
Display aspect ratio : 2.35:1
Frame rate : 23.976 fps
Color space : YUV
Chroma subsampling : 4:2:0
Bit depth : 8 bits
Scan type : Progressive
Compression mode : Lossy
Bits/(Pixel*Frame) : 0.155
Stream size : 639 MiB (86%)
Writing library : XviD 73
Audio
ID : 1
Format : MPEG Audio
Format version : Version 1
Format profile : Layer 3
Codec ID : 55
Codec ID/Hint : MP3
Duration : 1h 49mn
Bit rate mode : Constant
Bit rate : 128 Kbps
Channel count : 2 channels
Sampling rate : 48.0 KHz
Compression mode : Lossy
Stream size : 100 MiB (13%)
Alignment : Aligned on interleaves
Interleave, duration : 42 ms (1.00 video frame)
Interleave, preload duration : 504 ms
Writing library : LAME3.99r
Encoding settings : -m s -V 4 -q 2 -lowpass 17 -b 128

Скриншот c названием фильма

Скриншоты

[opentorrent.pro].t3818.torrent 
Торрент: Зарегистрирован [ 2019-06-21 16:49 ] · 8127ACBA7BB13E8B4E016E3CA746BE0F4B373E18

Скачать .torrent

Скачать

15 KB

Статус: проверено
Скачан: 0 раз
Размер: 747 MB  ·  Тип торрента
terms.php
Показать сообщения:    

Текущее время: 08-Июл 07:30

Часовой пояс: UTC ± 0



Вы не можете начинать темы
Вы не можете отвечать на сообщения
Вы не можете редактировать свои сообщения
Вы не можете удалять свои сообщения
Вы не можете голосовать в опросах
Вы не можете прикреплять файлы к сообщениям
Вы можете скачивать файлы