Статистика раздачи
Размер:  740 MB   |    Зарегистрирован:  1 год 1 месяц   |    Скачан:  0 раз
DL-List: Нет
Сидов:  8  [  0 KB/s  ]  
 
     
 
 

солнышко ®

Пол:
Не указан
Стаж:
1 год 4 месяца
Сообщений:
720

Виновный / Den skyldige
Страна: Дания
Жанр: триллер, драма, криминал
Год выпуска: 2018
Продолжительность: 01:25:10
Перевод: Профессиональный (дублированный) iTunes
Субтитры: нет
Режиссер: Густав Мёллер / Gustav Möller
В ролях: Якоб Седергрен
Джессика Диннаж
Омар Шаргави
Йохан Олсен
Якоб Ульрик Ломанн
Катинка Эверс-Янсен
Жанетт Линдбёк
Симон Беннебьёрг
Лаура Бро
Мортен Суурбалле
Описание: Диспетчер службы спасения, бывший полицейский Асгер Хольм, принимает звонок от похищенной женщины. Когда связь обрывается, приходит время начать поиски жертвы и похитителя, и каждая прошедшая минута уменьшает шансы на благополучный исход. Однако, вскоре Асгер понимает, что это совсем не обычное похищение…
Доп. информация: https://www.kinopoisk.ru/film/1070927/
Сэмпл: http://sendfile.su/1501534
Качество видео: HDRip найден в сети
Формат видео: AVI
Видео: 720x304 (2.37:1), 25 fps, XviD build 73 ~1080 kbps avg, 0.20 bit/pixel
Аудио: 48 kHz, MPEG Layer 3, 2 ch, ~128.00 kbps avg

MediaInfo

General
Complete name : D:\Den.skyldige.2018.BDRip.D.MegaPeer.avi
Format : AVI
Format/Info : Audio Video Interleave
File size : 740 MiB
Duration : 1h 25mn
Overall bit rate : 1 214 Kbps
Video
ID : 0
Format : MPEG-4 Visual
Format profile : Advanced Simple@L5
Format settings, BVOP : 1
Format settings, QPel : No
Format settings, GMC : No warppoints
Format settings, Matrix : Custom
Codec ID : XVID
Codec ID/Hint : XviD
Duration : 1h 25mn
Bit rate : 1 080 Kbps
Width : 720 pixels
Height : 304 pixels
Display aspect ratio : 2.35:1
Frame rate : 25.000 fps
Color space : YUV
Chroma subsampling : 4:2:0
Bit depth : 8 bits
Scan type : Progressive
Compression mode : Lossy
Bits/(Pixel*Frame) : 0.197
Stream size : 658 MiB (89%)
Writing library : XviD 73
Audio
ID : 1
Format : MPEG Audio
Format version : Version 1
Format profile : Layer 3
Codec ID : 55
Codec ID/Hint : MP3
Duration : 1h 24mn
Bit rate mode : Constant
Bit rate : 128 Kbps
Channel count : 2 channels
Sampling rate : 48.0 KHz
Compression mode : Lossy
Stream size : 77.8 MiB (11%)
Alignment : Aligned on interleaves
Interleave, duration : 160 ms (4.01 video frames)
Interleave, preload duration : 216 ms
Writing library : LAME3.99r
Encoding settings : -m s -V 4 -q 2 -lowpass 17 -b 128

Скриншот c названием фильма

Скриншоты

[opentorrent.pro].t3824.torrent 
Торрент: Зарегистрирован [ 2019-06-21 16:49 ] · 081543E429C1A774DF1D94E7C9070813947B47BC

Скачать .torrent

Скачать

15 KB

Статус: проверено
Скачан: 0 раз
Размер: 740 MB  ·  Тип торрента
terms.php
Профиль [ЛС]
Показать сообщения:    

Текущее время: 04-Авг 09:01

Часовой пояс: UTC ± 0



Вы не можете начинать темы
Вы не можете отвечать на сообщения
Вы не можете редактировать свои сообщения
Вы не можете удалять свои сообщения
Вы не можете голосовать в опросах
Вы не можете прикреплять файлы к сообщениям
Вы можете скачивать файлы