Статистика раздачи
Нет
 
     
 
 

serzh ®

Пол:
Не указан
Стаж:
1 год 6 месяцев
Сообщений:
442

Добро пожаловать в Эрроу Бич / Welcome To Arrow Beach
Страна: США
Жанр: триллер, детектив
Год выпуска: 1974
Продолжительность: 01:34:04

Перевод: Авторский (одноголосый закадровый) Андрей Дольский
Субтитры: нет
Режиссер: Лоуренс Харви / Laurence Harvey
В ролях: Лоуренс Харви, Джоанна Петтет, Стюарт Уитман, Джон Айрленд, Мег Фостер, Глория ЛеРой, Дэвид Маклин, Доди Хит, Олтовайз Дэвис
Описание: Девушка Робин путешествует по Америке автостопом. Однажды она оказывается в небольшом городке Эрроу-Бич, расположенном на берегу океана. Она знакомится с парнем Джейсоном, живущим в шикарном доме вместе со своей эксцентричной сестрой Грейс. Вскоре Робин выясняет, что Джейсон-каннибал, который охотится на серфингистов. Девушке едва удается ускользнуть из дома и сообщить об увиденном властям городка. Тем временем Джейсон и Грейс успевают замести следы, поэтому Робин никто не верит. Тогда девушка решает самостоятельно вывести психопатов на чистую воду…
IMDB
Сэмпл: https://yadi.sk/i/3eN8_BTBmd_MeA
Качество видео: DVDRip (Исходник - DVD5)
Формат видео: AVI
Видео: XviD 73, 640x480, (4:3), 25.000 fps, 1842 Кбит/с, 8 бит, 0.24 bit/pixel
Аудио: Русский (АС3, 2 ch (Front: L R), 48,0 KHz, 224 Kbps)

MediaInfo

Общее
Полное имя : D:\Фильмы на трекер\Добро пожаловать в Эрроу Бич (триллер, детектив 1974 год).avi
Формат : AVI
Формат/Информация : Audio Video Interleave
Размер файла : 1,36 Гбайт
Продолжительность : 1 ч. 34 м.
Общий поток : 2075 Кбит/сек
Программа кодирования : VirtualDubMod 1.5.10.2 (build 2540/release)
Библиотека кодирования : VirtualDubMod build 2540/release
Видео
Идентификатор : 0
Формат : MPEG-4 Visual
Профиль формата : Advanced Simple@L5
Параметр BVOP формата : 2
Параметр QPel формата : Нет
Параметр GMC формата : Без точки перехода
Параметр матрицы формата : Выборочная
Идентификатор кодека : XVID
Идентификатор кодека/Подсказка : XviD
Продолжительность : 1 ч. 34 м.
Битрейт : 1842 Кбит/сек
Ширина : 640 пикселей
Высота : 480 пикселей
Соотношение сторон : 4:3
Частота кадров : 25,000 кадров/сек
Цветовое пространство : YUV
Субдискретизация насыщенности : 4:2:0
Битовая глубина : 8 бит
Тип развёртки : Прогрессивная
Метод сжатия : С потерями
Бит/(Пиксели*Кадры) : 0.240
Размер потока : 1,21 Гбайт (89%)
Библиотека кодирования : XviD 73
Аудио
Идентификатор : 1
Формат : AC-3
Формат/Информация : Audio Coding 3
Расширение режима : CM (complete main)
Параметр Endianness формата : Big
Идентификатор кодека : 2000
Продолжительность : 1 ч. 34 м.
Вид битрейта : Постоянный
Битрейт : 224 Кбит/сек
Каналы : 2 канала
Расположение каналов : Front: L R
Частота : 48,0 КГц
Частота кадров : 31,250 кадров/сек (1536 spf)
Метод сжатия : С потерями
Размер потока : 151 Мбайт (11%)
Выравнивание : Разделение по промежуткам
Продолжительность промежутка : 40 мс. (1,00 видеокадр)
Время предзагрузки промежутка : 500 мс.

Скриншот c названием фильма

Скриншоты

Профиль [ЛС]
Показать сообщения:    

Текущее время: 19-Сен 05:36

Часовой пояс: UTC ± 0



Вы не можете начинать темы
Вы не можете отвечать на сообщения
Вы не можете редактировать свои сообщения
Вы не можете удалять свои сообщения
Вы не можете голосовать в опросах
Вы не можете прикреплять файлы к сообщениям
Вы не можете скачивать файлы