Статистика раздачи
Размер:  1,46 GB   |    Зарегистрирован:  1 год 1 месяц   |    Скачан:  0 раз
DL-List: Нет

Полного источника не было: Никогда

 
     
 
 

Гость ®

Пол:
Не указан

Продавец игрушек
Жанр: мелодрама, комедия
Год выпуска: 2012
Продолжительность: 01:30:06
Режиссёр: Юрий Васильев
В ролях: Шамиль Хаматов, Агния Дитковските, Татьяна Лютаева, Вениамин Смехов, Пьер Ришар, Андрей Барило, Ольга Волкова, Тифен Давьо, Александр Соловьев, Евгений Шиманович
Описание: Николя Берсен — француз с русскими корнями. Живет в Париже и работает продавцом игрушек. Ни мама, ни французская невеста — дочь парижского кондитерского «короля» — не одобряют чудачества Николя, ведь сорбонское образование позволяет ему сделать прекрасную карьеру в бизнесе. Перед Рождеством Николя отправляется в Россию, чтобы больше узнать о своем происхождении. Кто мог предположить, что эта поездка изменит его жизнь? В России его ждут приключения, фамильные сокровища, и… настоящая любовь.
Доп. информация: Версия с тифлокомментариями и вшитыми русскими субтитрами для инвалидов по зрению и слуху.
Качество видео: DVDRip
Формат видео: AVI
Видео: XviD, 720x336 (2,14:1), 25 fps, 2120 kbps
Аудио: AC3 Dolby Digital, 48 kHz, 2 ch, 192 kbps
Материал предоставлен selena_a

MediaInfo

Общее
Полное имя : Продавец игрушек.avi
Формат : AVI
Формат/Информация : Audio Video Interleave
Размер файла : 1,46 Гбайт
Продолжительность : 1 ч. 30 м.
Общий поток : 2322 Кбит/сек
Программа кодирования : VirtualDubMod 1.5.10.2 (build 2542/release)
Библиотека кодирования : VirtualDubMod build 2542/release
Видео
Идентификатор : 0
Формат : MPEG-4 Visual
Профиль формата : Advanced Simple@L5
Настройки формата : BVOP2 / Custom Matrix
Параметр BVOP формата : 2
Параметр QPel формата : Нет
Параметр GMC формата : Без точки перехода
Параметр матрицы формата : Выборочная
Идентификатор кодека : XVID
Идентификатор кодека/Подсказка : XviD
Продолжительность : 1 ч. 30 м.
Битрейт : 2120 Кбит/сек
Ширина : 720 пикселей
Высота : 336 пикселей
Соотношение сторон : 2,143
Частота кадров : 25,000 кадров/сек
Цветовое пространство : YUV
Субдискретизация насыщенности : 4:2:0
Битовая глубина : 8 бит
Тип развёртки : Прогрессивная
Метод сжатия : С потерями
Бит/(Пиксели*Кадры) : 0.351
Размер потока : 1,33 Гбайт (91%)
Библиотека кодирования : XviD 65
Аудио
Идентификатор : 1
Формат : AC-3
Формат/Информация : Audio Coding 3
Идентификатор кодека : 2000
Продолжительность : 1 ч. 30 м.
Вид битрейта : Постоянный
Битрейт : 192 Кбит/сек
Каналы : 2 канала
Расположение каналов : Front: L R
Частота : 48,0 КГц
Частота кадров : 31,250 кадров/сек (1536 SPF)
Битовая глубина : 16 бит
Метод сжатия : С потерями
Размер потока : 124 Мбайт (8%)
Выравнивание : Разделение по промежуткам
Продолжительность промежутка : 40 мс. (1,00 видеокадр)
Время предзагрузки промежутка : 500 мс.
ServiceKind/String : Complete Main
[opentorrent.pro].t3835.torrent 
Торрент: Зарегистрирован [ 2019-06-22 17:16 ] · 9EAD87D9154D9A82F64210329AB313AEFD70CBFC

Скачать .torrent

Скачать

15 KB

Статус: проверено
Скачан: 0 раз
Размер: 1,46 GB  ·  Тип торрента
terms.php
Показать сообщения:    

Текущее время: 05-Авг 02:16

Часовой пояс: UTC ± 0



Вы не можете начинать темы
Вы не можете отвечать на сообщения
Вы не можете редактировать свои сообщения
Вы не можете удалять свои сообщения
Вы не можете голосовать в опросах
Вы не можете прикреплять файлы к сообщениям
Вы можете скачивать файлы