Статистика раздачи
Размер:  354 MB   |    Зарегистрирован:  1 год   |    Скачан:  0 раз
DL-List: Нет

Полного источника не было: Никогда

 
     
 
 

Гость ®

Пол:
Не указан

ПреКрасная Шапочка
Страна: Россия
Жанр: мультфильм
Продолжительность: 00:26:00
Год выпуска: 2017
Русские субтитры: нет
Режиссёр: Денис Кузьмин
Роли озвучивали: Михаил Черняк, Ксения Бржезовская, Елена Шульман
Описание: Красная Шапочка при помощи волшебной книги попадает в известные сказки, и пытается занять в них место принцессы, чтобы найти своего принца. Сказки в книге разные, но Красная Шапочка верна себе — каждый раз она влипает в новое приключение из-за своего упрямого характера. Выручать её приходится Серому Волку...
Мультфильм состоит из четырёх сюжетов: "Спящая красавица", "Красавица и чудовище", "Царевна Лягушка" и "Золушка".
Качество: WEBRip
Формат: AVI
Видео: 1697 kbps, 720х400 (16:9), 25.000 fps, MPEG-4 Visual (XviD)
Аудио: 192 kbps, 44.1 kHz, 2 channels, MPEG Audio (MP3)
Субтитры: отсутствуют

Подробные технические данные

General
Complete name : ПреКрасная Шапочка (2017).avi
Format : AVI
Format/Info : Audio Video Interleave
File size : 354 MiB
Duration : 26mn 0s
Overall bit rate : 1 901 Kbps
Writing application : Lavf57.41.100
Writing library : VirtualDub build 35491/release
Video
ID : 0
Format : MPEG-4 Visual
Format profile : Advanced Simple@L5
Format settings, BVOP : 2
Format settings, QPel : No
Format settings, GMC : No warppoints
Format settings, Matrix : Default (H.263)
Codec ID : XVID
Codec ID/Hint : XviD
Duration : 26mn 0s
Bit rate : 1 697 Kbps
Width : 720 pixels
Height : 400 pixels
Display aspect ratio : 16:9
Frame rate : 25.000 fps
Color space : YUV
Chroma subsampling : 4:2:0
Bit depth : 8 bits
Scan type : Progressive
Compression mode : Lossy
Bits/(Pixel*Frame) : 0.236
Stream size : 316 MiB (89%)
Writing library : XviD 73
Audio
ID : 1
Format : MPEG Audio
Format version : Version 1
Format profile : Layer 3
Mode : Joint stereo
Mode extension : MS Stereo
Codec ID : 55
Codec ID/Hint : MP3
Duration : 26mn 0s
Bit rate mode : Constant
Bit rate : 192 Kbps
Channel(s) : 2 channels
Sampling rate : 44.1 KHz
Compression mode : Lossy
Stream size : 35.7 MiB (10%)
Alignment : Aligned on interleaves
Interleave, duration : 26 ms (0.65 video frame)
Interleave, preload duration : 522 ms
Writing library : LAME3.99.5

Скриншоты

[opentorrent.pro].t3837.torrent 
Торрент: Зарегистрирован [ 2019-06-22 17:16 ] · 05EDE6E1822C7137B110099A1CB218ECBE985108

Скачать .torrent

Скачать

14 KB

Статус: проверено
Скачан: 0 раз
Размер: 354 MB  ·  Тип торрента
terms.php
Показать сообщения:    

Текущее время: 09-Июл 11:37

Часовой пояс: UTC ± 0



Вы не можете начинать темы
Вы не можете отвечать на сообщения
Вы не можете редактировать свои сообщения
Вы не можете удалять свои сообщения
Вы не можете голосовать в опросах
Вы не можете прикреплять файлы к сообщениям
Вы можете скачивать файлы