Статистика раздачи
Размер:  4,71 GB   |    Зарегистрирован:  1 год 1 месяц   |    Скачан:  0 раз
DL-List: Нет
Сидов:  11  [  0 KB/s  ]   Личеров:  3  [  0 KB/s  ]  
 
     
 
 

Гость ®

Пол:
Не указан

В Москве всегда солнечно
Год выпуска: 2014
Производство: Россия, Good Story Media по заказу ТНТ
Жанр: Комедия
Продолжительность: 00:24:00
Субтитры: Нет
Режиссёр: Александр Наумов (II)
В ролях: Константин Крюков, Александра Ребенок, Иван Куприенко, Дмитрий Астрахан, Ирина Апексимова, Игорь Жижикин, Сергей Сивохо, Ингрид Олеринская, Светлана Павлова, Михаил Крылов, Геннадий Матвеев, Сергей Фролов (IV), Юлия Юрченко, Елена Трофимова, Николай Лунин, Павел Абраменков, Николай Алипа, Екатерина Мадалинская, Екатерина Берлинская
Описание: Крепкая дружба, настоящая любовь, преданность идеалам, благородство и достоинство, скромность и доброта — все это не имеет никакого отношения к героям сериала «В Москве всегда солнечно». Четверо молодых героев: Сергей и Алена Ковалевы, Максим Борисенко и Роман Макаров. Они вместе учились в школе. У них есть свой бизнес — пивной бар «Филадельфия». Но доходов он почти не приносит. Все их планы и надежды — любовные и денежные — рушатся, сталкиваясь с реальностью. Причина этому — их эгоизм, лень и глупость.И только природная жизнерадостность вместе с уже отмеченной глупостью помогают им сохранять оптимизм и не предаваться унынию.
Релиз группа
Реклама: Сторонней рекламы нет!
Все раздачи сериала В Москве всегда солнечно


Качество: WEBRip
Формат: AVI
Видео кодек: XviD
Аудио кодек: AC3
Видео: 720x400 (1.80:1), 25 fps, XviD build 73 ~1600 kbps avg, 0.222 bit/pixel
Аудио: 48 kHz, AC3 Dolby Digital, 2/0 (L,R) ch, ~192 kbps

Скриншоты

MediaInfo

eneral
Complete name : C:\00\6354\V.Moskve.vsegda.solnechno.2014.WEB-DLRip. Files-x\V.Moskve.vsegda.solnechno.e11.2014.WEB-DLRip. Files-x.avi
Format : AVI
Format/Info : Audio Video Interleave
File size : 313 MiB
Duration : 24mn 16s
Overall bit rate : 1 802 Kbps
Writing application : VirtualDubMod 1.5.10.3 | www.virtualdub-fr.org || (build 2550/release)
Writing library : VirtualDubMod build 2550/release
Video
ID : 0
Format : MPEG-4 Visual
Format profile : Advanced Simple@L5
Format settings, BVOP : 1
Format settings, QPel : No
Format settings, GMC : No warppoints
Format settings, Matrix : Custom
Codec ID : XVID
Codec ID/Hint : XviD
Duration : 24mn 16s
Bit rate : 1 600 Kbps
Width : 720 pixels
Height : 400 pixels
Display aspect ratio : 16:9
Frame rate : 25.000 fps
Color space : YUV
Chroma subsampling : 4:2:0
Bit depth : 8 bits
Scan type : Progressive
Compression mode : Lossy
Bits/(Pixel*Frame) : 0.222
Stream size : 278 MiB (89%)
Writing library : XviD 73
Audio
ID : 1
Format : AC-3
Format/Info : Audio Coding 3
Mode extension : CM (complete main)
Codec ID : 2000
Duration : 24mn 16s
Bit rate mode : Constant
Bit rate : 192 Kbps
Channel(s) : 2 channels
Channel positions : Front: L R
Sampling rate : 48.0 KHz
Bit depth : 16 bits
Compression mode : Lossy
Stream size : 33.3 MiB (11%)
Alignment : Split accross interleaves
Interleave, duration : 40 ms (1.00 video frame)
Interleave, preload duration : 500 ms
[opentorrent.pro].t3844.torrent 
Торрент: Зарегистрирован [ 2019-06-22 17:16 ] · 9DE03C9A0EA5191285E0777AE944189F1454BF52

Скачать .torrent

Скачать

25 KB

Статус: проверено
Скачан: 0 раз
Размер: 4,71 GB  ·  Тип торрента
terms.php
Показать сообщения:    

Текущее время: 05-Авг 02:27

Часовой пояс: UTC ± 0



Вы не можете начинать темы
Вы не можете отвечать на сообщения
Вы не можете редактировать свои сообщения
Вы не можете удалять свои сообщения
Вы не можете голосовать в опросах
Вы не можете прикреплять файлы к сообщениям
Вы можете скачивать файлы