Статистика раздачи
Размер:  744 MB   |    Зарегистрирован:  1 год 1 месяц   |    Скачан:  0 раз
DL-List: Нет

Полного источника не было: Никогда

 
     
 
 

Гость ®

Пол:
Не указан

Территория Джа
Страна: Россия, Казахстан
Жанр: фантастика, фэнтези, комедия
Год выпуска: 2014
Продолжительность: 01:34:23
Перевод: не требуется
Субтитры: нет
Оригинальная аудио дорожка: русский
Режиссёр: Алексей Пантелеев
В ролях: Алексей Пантелеев
Дмитрий Нагиев
Сергей Белоголовцев
Макс Резак
Владимир Александров
Елена Беркова
Анна Ляпунова
Кирилл Нагиев
Вадим Шлахтер
Дмитрий Пучков
Описание: К нашей планете летят метеориты, люди принимают решение каким-то способом отодвинуть Землю в сторону от смертоносного потока. Они цепляют земной шарик к космическому кораблю и оттаскивают, но так опрометчиво, что помещают ее рядом с другой планетой, которую населяют странные существа, подчиняющиеся смешному богу Джа. И начинается конфликт…
Доп. информация: https://www.kinopoisk.ru/film/705685/
Сэмпл: http://sendfile.su/1501854
Качество видео: HDRip найдено в сети
Формат видео: AVI
Видео: 720x400 (1.80:1), 25 fps, XviD build 73 ~963 kbps avg, 0.13 bit/pixel
Аудио: 48 kHz, MPEG Layer 3, 2 ch, ~128.00 kbps avg

MediaInfo

General
Complete name : D:\Territoriya Dzha.avi
Format : AVI
Format/Info : Audio Video Interleave
File size : 744 MiB
Duration : 1h 34mn
Overall bit rate : 1 101 Kbps
Writing application : VirtualDubMod 1.5.10.3 | www.virtualdub-fr.org || (build 2550/release)
Writing library : VirtualDubMod build 2550/release
Video
ID : 0
Format : MPEG-4 Visual
Format profile : Advanced Simple@L5
Format settings, BVOP : 1
Format settings, QPel : No
Format settings, GMC : No warppoints
Format settings, Matrix : Default (MPEG)
Codec ID : XVID
Codec ID/Hint : XviD
Duration : 1h 34mn
Bit rate : 964 Kbps
Width : 720 pixels
Height : 400 pixels
Display aspect ratio : 16:9
Frame rate : 25.000 fps
Color space : YUV
Chroma subsampling : 4:2:0
Bit depth : 8 bits
Scan type : Progressive
Compression mode : Lossy
Bits/(Pixel*Frame) : 0.134
Stream size : 651 MiB (87%)
Writing library : XviD 73
Audio
ID : 1
Format : MPEG Audio
Format version : Version 1
Format profile : Layer 3
Codec ID : 55
Codec ID/Hint : MP3
Duration : 1h 34mn
Bit rate mode : Constant
Bit rate : 128 Kbps
Channel count : 2 channels
Sampling rate : 48.0 KHz
Compression mode : Lossy
Stream size : 86.4 MiB (12%)
Alignment : Aligned on interleaves
Interleave, duration : 40 ms (1.00 video frame)
Interleave, preload duration : 504 ms
Writing library : LAME3.99r
Encoding settings : -m s -V 4 -q 2 -lowpass 17 -b 128

Скриншот c названием фильма

Скриншоты

[opentorrent.pro].t3845.torrent 
Торрент: Зарегистрирован [ 2019-06-22 17:16 ] · 8232ACC865F0213F38E592A04D60BFF29C72C69F

Скачать .torrent

Скачать

15 KB

Статус: проверено
Скачан: 0 раз
Размер: 744 MB  ·  Тип торрента
terms.php
Показать сообщения:    

Текущее время: 08-Авг 18:18

Часовой пояс: UTC ± 0



Вы не можете начинать темы
Вы не можете отвечать на сообщения
Вы не можете редактировать свои сообщения
Вы не можете удалять свои сообщения
Вы не можете голосовать в опросах
Вы не можете прикреплять файлы к сообщениям
Вы можете скачивать файлы