Статистика раздачи
Размер:  1,45 GB   |    Зарегистрирован:  1 год   |    Скачан:  0 раз
DL-List: Нет
Сидов:  41  [  0 KB/s  ]   Личеров:  2  [  0 KB/s  ]  
 
     
 
 

Гость ®

Пол:
Не указан

Семь пар нечистых
Страна: Россия
Жанр: боевик, драма, военный, приключения
Год выпуска: 2018
Продолжительность: 01:18:26
Субтитры: нет
Режиссер: Кирилл Астахов, Юрий Ильин
В ролях: Юрий Борисов, Мари Ворожи, Тимофей Трибунцев, Василий Мищенко, Михаил Евланов, Александр Вершинин, Евгений Куршинский, Микаэль Джанибекян, Бесо Гатаев, Александр Алёшкин, Максим Браматкин, Станислав Курач
Описание: 1941 г. Бунт в открытом море - это всегда страшно. Ненависть заключенных и охранников друг к другу копится десятилетиями. Эта ненависть переполняет людей. Бунт заключенных на корабле страшен вдвойне. Слишком много ненависти на ограниченном пространстве. Но все меняется, когда появляется общий враг.

Автор рипа: stalkerok
Сэмпл
Качество видео: WEB-DLRip-AVC | WEB-DL 1080p (NTV)
Формат видео: MKV
Видео кодек: AVC
Аудио кодек: AAC
Видео: AVC, 2527 Кбит/сек, 1146x480 (2.40:1), 25 кадр/сек
Аудио: AAC, 125 Кбит/сек, 48 КГц, 2.0 - русский

x264/MediaInfo

---[Information] [22.06.2019 15:27:45] x264 [info]: frame I:761 Avg QP:15.20 size: 45445
---[Information] [22.06.2019 15:27:45] x264 [info]: frame P:32288 Avg QP:18.98 size: 22135
---[Information] [22.06.2019 15:27:45] x264 [info]: frame B:84605 Avg QP:20.48 size: 8706
General
Unique ID : 164505327045715258114404733363587561153 (0x7BC292D34FB6E5CFFC67ADDBA82AB6C1)
Complete name : M:\temp\Sem par nechistyh\Sem.par.nechistyh.2018.WEB-DLRip.x264.Rus.stalkerok.New-Team.mkv
Format : Matroska
Format version : Version 4
File size : 1.45 GiB
Duration : 1 h 18 min
Overall bit rate : 2 654 kb/s
Movie name : Семь пар нечистых (2018) | Rip by stalkerok
Encoded date : UTC 2019-06-22 12:28:29
Writing application : mkvmerge v33.1.0 ('Primrose') 64-bit
Writing library : libebml v1.3.7 + libmatroska v1.5.0
Video
ID : 1
Format : AVC
Format/Info : Advanced Video Codec
Format profile : High@L4.1
Format settings : CABAC / 12 Ref Frames
Format settings, CABAC : Yes
Format settings, RefFrames : 12 frames
Codec ID : V_MPEG4/ISO/AVC
Duration : 1 h 18 min
Bit rate : 2 527 kb/s
Width : 1 146 pixels
Height : 480 pixels
Display aspect ratio : 2.40:1
Frame rate mode : Constant
Frame rate : 25.000 FPS
Color space : YUV
Chroma subsampling : 4:2:0
Bit depth : 8 bits
Scan type : Progressive
Bits/(Pixel*Frame) : 0.184
Stream size : 1.38 GiB (95%)
Title : Семь пар нечистых (2018) | Rip by stalkerok
Writing library : x264 core 157 r2969 d4099dd
Encoding settings : cabac=1 / ref=12 / deblock=1:-3:-2 / analyse=0x3:0x133 / me=umh / subme=11 / psy=1 / psy_rd=1.00:0.00 / mixed_ref=1 / me_range=32 / chroma_me=1 / trellis=2 / 8x8dct=1 / cqm=0 / deadzone=21,11 / fast_pskip=0 / chroma_qp_offset=-2 / threads=12 / lookahead_threads=3 / sliced_threads=0 / nr=0 / decimate=0 / interlaced=0 / bluray_compat=0 / constrained_intra=0 / bframes=14 / b_pyramid=2 / b_adapt=2 / b_bias=0 / direct=3 / weightb=1 / open_gop=0 / weightp=2 / keyint=250 / keyint_min=25 / scenecut=40 / intra_refresh=0 / rc_lookahead=60 / rc=2pass / mbtree=0 / bitrate=2527 / ratetol=1.0 / qcomp=0.65 / qpmin=0 / qpmax=69 / qpstep=4 / cplxblur=20.0 / qblur=0.5 / vbv_maxrate=50000 / vbv_bufsize=62500 / nal_hrd=none / filler=0 / ip_ratio=1.40 / pb_ratio=1.30 / aq=3:0.80 / zones=109529,117653,q=32
Default : Yes
Forced : No
Audio
ID : 2
Format : AAC LC
Format/Info : Advanced Audio Codec Low Complexity
Codec ID : A_AAC-2
Duration : 1 h 18 min
Bit rate : 125 kb/s
Channel(s) : 2 channels
Channel layout : L R
Sampling rate : 48.0 kHz
Frame rate : 46.875 FPS (1024 SPF)
Compression mode : Lossy
Stream size : 70.4 MiB (5%)
Language : Russian
Default : Yes
Forced : No

Скриншоты

[opentorrent.pro].t3851.torrent 
Торрент: Зарегистрирован [ 2019-06-22 17:16 ] · E9DB8FC1B7A0669D7EBBC1D0FF3F6E38C59048C7

Скачать .torrent

Скачать

15 KB

Статус: проверено
Скачан: 0 раз
Размер: 1,45 GB  ·  Тип торрента
terms.php
Показать сообщения:    

Текущее время: 13-Июл 10:49

Часовой пояс: UTC ± 0



Вы не можете начинать темы
Вы не можете отвечать на сообщения
Вы не можете редактировать свои сообщения
Вы не можете удалять свои сообщения
Вы не можете голосовать в опросах
Вы не можете прикреплять файлы к сообщениям
Вы можете скачивать файлы