Статистика раздачи
Размер:  745 MB   |    Зарегистрирован:  1 год   |    Скачан:  0 раз
DL-List: Нет
Сидов:  14  [  0 KB/s  ]   Личеров:  2  [  0 KB/s  ]  
 
     
 
 

Гость ®

Пол:
Не указан

Семь пар нечистых
Страна: Россия
Жанр: боевик, драма, военный, приключения
Год выпуска: 2018
Продолжительность: 01:18:26
Субтитры: нет
Режиссер: Кирилл Астахов, Юрий Ильин
В ролях: Юрий Борисов, Мари Ворожи, Тимофей Трибунцев, Василий Мищенко, Михаил Евланов, Александр Вершинин, Евгений Куршинский, Микаэль Джанибекян, Бесо Гатаев, Александр Алёшкин, Максим Браматкин, Станислав Курач
Описание: 1941 г. Бунт в открытом море - это всегда страшно. Ненависть заключенных и охранников друг к другу копится десятилетиями. Эта ненависть переполняет людей. Бунт заключенных на корабле страшен вдвойне. Слишком много ненависти на ограниченном пространстве. Но все меняется, когда появляется общий враг.

Автор рипа: stalkerok
Сэмпл
Качество видео: WEB-DLRip-AVC | WEB-DL 1080p (NTV)
Формат видео: MKV
Видео кодек: AVC
Аудио кодек: AAC
Видео: AVC, 1201 Кбит/сек, 874x366 (2.40:1), 25 кадр/сек
Аудио: AAC, 125 Кбит/сек, 48 КГц, 2.0 - русский

x264/MediaInfo

---[Information] [22.06.2019 18:47:59] x264 [info]: frame I:777 Avg QP:16.73 size: 26481
---[Information] [22.06.2019 18:47:59] x264 [info]: frame P:31331 Avg QP:20.98 size: 11040
---[Information] [22.06.2019 18:47:59] x264 [info]: frame B:85546 Avg QP:22.23 size: 3974
General
Unique ID : 61330035977803448755305178232946450152 (0x2E23BC3B2DD2AEAEBB8E22A4D6E05EE8)
Complete name : M:\temp\Sem par nechistyh\Sem.par.nechistyh.2018.WEB-DLRip.x264.Rus.stalkerok.New-Team..mkv
Format : Matroska
Format version : Version 4
File size : 745 MiB
Duration : 1 h 18 min
Overall bit rate : 1 328 kb/s
Movie name : Семь пар нечистых (2018) | Rip by stalkerok
Encoded date : UTC 2019-06-22 15:50:25
Writing application : mkvmerge v33.1.0 ('Primrose') 64-bit
Writing library : libebml v1.3.7 + libmatroska v1.5.0
Video
ID : 1
Format : AVC
Format/Info : Advanced Video Codec
Format profile : High@L4.1
Format settings : CABAC / 14 Ref Frames
Format settings, CABAC : Yes
Format settings, RefFrames : 14 frames
Codec ID : V_MPEG4/ISO/AVC
Duration : 1 h 18 min
Bit rate : 1 201 kb/s
Width : 874 pixels
Height : 366 pixels
Display aspect ratio : 2.40:1
Frame rate mode : Constant
Frame rate : 25.000 FPS
Color space : YUV
Chroma subsampling : 4:2:0
Bit depth : 8 bits
Scan type : Progressive
Bits/(Pixel*Frame) : 0.150
Stream size : 674 MiB (90%)
Title : Семь пар нечистых (2018) | Rip by stalkerok
Writing library : x264 core 157 r2969 d4099dd
Encoding settings : cabac=1 / ref=14 / deblock=1:-3:-2 / analyse=0x3:0x133 / me=umh / subme=11 / psy=1 / psy_rd=1.00:0.00 / mixed_ref=1 / me_range=32 / chroma_me=1 / trellis=2 / 8x8dct=1 / cqm=0 / deadzone=21,11 / fast_pskip=0 / chroma_qp_offset=-2 / threads=11 / lookahead_threads=2 / sliced_threads=0 / nr=0 / decimate=0 / interlaced=0 / bluray_compat=0 / constrained_intra=0 / bframes=16 / b_pyramid=2 / b_adapt=2 / b_bias=0 / direct=3 / weightb=1 / open_gop=0 / weightp=2 / keyint=250 / keyint_min=25 / scenecut=40 / intra_refresh=0 / rc_lookahead=60 / rc=2pass / mbtree=0 / bitrate=1201 / ratetol=1.0 / qcomp=0.65 / qpmin=0 / qpmax=69 / qpstep=4 / cplxblur=20.0 / qblur=0.5 / vbv_maxrate=50000 / vbv_bufsize=62500 / nal_hrd=none / filler=0 / ip_ratio=1.40 / pb_ratio=1.30 / aq=3:0.90 / zones=109529,117653,q=34
Default : Yes
Forced : No
Audio
ID : 2
Format : AAC LC
Format/Info : Advanced Audio Codec Low Complexity
Codec ID : A_AAC-2
Duration : 1 h 18 min
Bit rate : 125 kb/s
Channel(s) : 2 channels
Channel layout : L R
Sampling rate : 48.0 kHz
Frame rate : 46.875 FPS (1024 SPF)
Compression mode : Lossy
Stream size : 70.4 MiB (9%)
Language : Russian
Default : Yes
Forced : No

Скриншоты

[opentorrent.pro].t3860.torrent 
Торрент: Зарегистрирован [ 2019-06-23 15:42 ] · 930D949FB2C2FF0EC913E33BBD67D7D841AFA78D

Скачать .torrent

Скачать

15 KB

Статус: проверено
Скачан: 0 раз
Размер: 745 MB  ·  Тип торрента
terms.php
Показать сообщения:    

Текущее время: 13-Июл 11:11

Часовой пояс: UTC ± 0



Вы не можете начинать темы
Вы не можете отвечать на сообщения
Вы не можете редактировать свои сообщения
Вы не можете удалять свои сообщения
Вы не можете голосовать в опросах
Вы не можете прикреплять файлы к сообщениям
Вы можете скачивать файлы