Статистика раздачи
Размер:  746 MB   |    Зарегистрирован:  1 год   |    Скачан:  0 раз
DL-List: Нет
Сидов:  6  [  0 KB/s  ]  
 
     
 
 

Гость ®

Пол:
Не указан

Лазарат / Lazarat / The Brave
Страна: США
Жанр: боевик, триллер, криминал
Год выпуска: 2019
Продолжительность: 01:43:06
Перевод: Любительский (многоголосый закадровый) HDRezka Studio
Субтитры: нет
Режиссер: Уильям Кауфман / William Kaufman
В ролях: Арманд Ассанте
Луис Мэндилор
Игорь Жижикин
Равшана Куркова
Гоша Куценко
Иса Заруи
Mensur Safqiu
Радослав Парванов
Салим Заруи
Иван Макаревич
Описание: Действие триллера, основанного на реальных событиях, разворачивается в самом сердце Албании. Перед зрителем предстает мир, полный наркотиков, преступности, обмана, позора и опасности, скрывающихся на каждом углу.
В центре сюжета — история реального противостояния местных жителей и полиции, которая пыталась ограничить бурную деятельность селян, связанную с производству наркотиков.
Доп. информация: https://www.kinopoisk.ru/film/981200/
Сэмпл: http://sendfile.su/1501896
Качество видео: WEB-DLRip найден в сети
Формат видео: AVI
Видео: 688x288 (2.39:1), 23.976 fps, XviD build 73 ~873 kbps avg, 0.18 bit/pixel
Аудио: 48 kHz, MPEG Layer 3, 2 ch, ~128.00 kbps avg

MediaInfo

General
Complete name : D:\Лазарат.2019.MVO Rus.WEB-DLRip.ExKinoRay.avi
Format : AVI
Format/Info : Audio Video Interleave
File size : 746 MiB
Duration : 1h 43mn
Overall bit rate : 1 011 Kbps
Writing application : VirtualDubMod 1.5.10.3 | www.virtualdub-fr.org || (build 2550/release)
Writing library : VirtualDubMod build 2550/release
Video
ID : 0
Format : MPEG-4 Visual
Format profile : Advanced Simple@L5
Format settings, BVOP : 1
Format settings, QPel : No
Format settings, GMC : No warppoints
Format settings, Matrix : Custom
Codec ID : XVID
Codec ID/Hint : XviD
Duration : 1h 43mn
Bit rate : 874 Kbps
Width : 688 pixels
Height : 288 pixels
Display aspect ratio : 2.40:1
Frame rate : 23.976 fps
Color space : YUV
Chroma subsampling : 4:2:0
Bit depth : 8 bits
Scan type : Progressive
Compression mode : Lossy
Bits/(Pixel*Frame) : 0.184
Stream size : 644 MiB (86%)
Writing library : XviD 73
Audio
ID : 1
Format : MPEG Audio
Format version : Version 1
Format profile : Layer 3
Codec ID : 55
Codec ID/Hint : MP3
Duration : 1h 43mn
Bit rate mode : Constant
Bit rate : 128 Kbps
Channel count : 2 channels
Sampling rate : 48.0 KHz
Compression mode : Lossy
Stream size : 94.4 MiB (13%)
Alignment : Aligned on interleaves
Interleave, duration : 42 ms (1.00 video frame)
Interleave, preload duration : 504 ms
Writing library : LAME3.99r
Encoding settings : -m s -V 4 -q 2 -lowpass 17 -b 128

Скриншот c названием фильма

Скриншоты

[opentorrent.pro].t3861.torrent 
Торрент: Зарегистрирован [ 2019-06-23 15:42 ] · 358FE106098D73C2369BC1ECB42B68F7634BBF99

Скачать .torrent

Скачать

15 KB

Статус: проверено
Скачан: 0 раз
Размер: 746 MB  ·  Тип торрента
terms.php
Показать сообщения:    

Текущее время: 08-Июл 07:15

Часовой пояс: UTC ± 0



Вы не можете начинать темы
Вы не можете отвечать на сообщения
Вы не можете редактировать свои сообщения
Вы не можете удалять свои сообщения
Вы не можете голосовать в опросах
Вы не можете прикреплять файлы к сообщениям
Вы можете скачивать файлы