Статистика раздачи
Размер:  742 MB   |    Зарегистрирован:  1 год 1 месяц   |    Скачан:  0 раз
DL-List: Нет

Полного источника не было: Никогда

 
     
 
 

Гость ®

Пол:
Не указан

Семь пар нечистых
Страна: Россия
Жанр: боевик, драма, военный, приключения
Год выпуска: 2018
Продолжительность: 01:18:26
Субтитры: нет-Режиссер:
Кирилл Астахов, Юрий Ильин-В ролях:
Юрий Борисов, Мари Ворожи, Тимофей Трибунцев, Василий Мищенко, Михаил Евланов, Александр Вершинин, Евгений Куршинский, Микаэль Джанибекян, Бесо Гатаев, Александр Алёшкин-Описание:
1941 г. Бунт в открытом море — это всегда страшно. Ненависть заключенных и охранников друг к другу копится десятилетиями. Эта ненависть переполняет людей. Бунт заключенных на корабле страшен вдвойне. Слишком много ненависти на ограниченном пространстве. Но все меняется, когда появляется общий враг.- -Качество видео: WEBRip
Формат видео: AVI
Видео: 688x288 (2.39:1), 25 fps, XviD build 73 ~1185 kbps avg, 0.24 bit/pixel
Аудио: 48 kHz, MPEG Layer 3, 2 ch, ~128.00 kbps avg-Сэмпл-

MediaInfo

Код:Формат : AVI
Формат/Информация : Audio Video Interleave
Размер файла : 742 Мбайт
Продолжительность : 1 ч. 18 м.
Общий поток : 1323 Кбит/сек
Название фильма : Семь пар нечистых_2018_WEBRip
Программа кодирования : VirtualDubMod 1.5.10.3 | www.virtualdub-fr.org || (build 2550/release)
Авторское право : порошков
Видео
Идентификатор : 0
Формат : MPEG-4 Visual
Профиль формата : Advanced Simple@L5
Настройки формата : BVOP1 / Custom Matrix
Параметр BVOP формата : 1
Параметр QPel формата : Нет
Параметр GMC формата : Без точки перехода
Параметр матрицы формата : Выборочная
Идентификатор кодека : XVID
Идентификатор кодека/Подсказка : XviD
Продолжительность : 1 ч. 18 м.
Битрейт : 1186 Кбит/сек
Ширина : 688 пикселей
Высота : 288 пикселей
Соотношение сторон : 2,40:1
Частота кадров : 25,000 кадров/сек
Цветовое пространство : YUV
Субдискретизация насыщенности : 4:2:0
Битовая глубина : 8 бит
Тип развёртки : Прогрессивная
Метод сжатия : С потерями
Бит/(Пиксели*Кадры) : 0.239
Размер потока : 665 Мбайт (90%)
Библиотека кодирования : XviD 73
Аудио
Идентификатор : 1
Формат : MPEG Audio
Версия формата : Version 1
Профиль формата : Layer 3
Идентификатор кодека : 55
Идентификатор кодека/Подсказка : MP3
Продолжительность : 1 ч. 18 м.
Вид битрейта : Постоянный
Битрейт : 128 Кбит/сек
Каналы : 2 канала
Частота : 48,0 КГц
Частота кадров : 41,667 кадра/сек (1152 SPF)
Метод сжатия : С потерями
Размер потока : 71,8 Мбайт (10%)
Выравнивание : Соединение по промежуткам
Продолжительность промежутка : 40 мс. (1,00 видеокадр)
Время предзагрузки промежутка : 504 мс.
Библиотека кодирования : LAME3.99r
Настройки программы : -m s -V 4 -q 2 -lowpass 17 -b 128

Скриншоты


[opentorrent.pro].t3862.torrent 
Торрент: Зарегистрирован [ 2019-06-23 15:42 ] · CC138C23B6CFE2B1ACF596350B303B5B59382032

Скачать .torrent

Скачать

15 KB

Статус: проверено
Скачан: 0 раз
Размер: 742 MB  ·  Тип торрента
terms.php
Показать сообщения:    

Текущее время: 08-Авг 17:22

Часовой пояс: UTC ± 0



Вы не можете начинать темы
Вы не можете отвечать на сообщения
Вы не можете редактировать свои сообщения
Вы не можете удалять свои сообщения
Вы не можете голосовать в опросах
Вы не можете прикреплять файлы к сообщениям
Вы можете скачивать файлы