Статистика раздачи
Размер:  745 MB   |    Зарегистрирован:  1 год   |    Скачан:  0 раз
DL-List: Нет
Сидов:  7  [  0 KB/s  ]   Личеров:  3  [  0 KB/s  ]  
 
     
 
 

солнышко ®

Пол:
Не указан
Стаж:
1 год 4 месяца
Сообщений:
723

Кин / Kin
Страна: США
Жанр: драма, боевик, фантастика, криминал
Год выпуска: 2018
Продолжительность: 01:42:54
Перевод: Профессиональный (дублированный) iTunes
Субтитры: нет
Режиссер: Джонатан Бэйкер / Jonathan Baker, Джош Бэйкер / Josh Baker
В ролях: Майлс Труитт
Джек Рейнор
Деннис Куэйд
Зои Кравиц
Джеймс Франко
Кэрри Кун
Йен Мэтьюз
Гэвин Фокс
Стефан Гарно
Лукас Пенар
Описание: Школьника Элая отстранили от занятий в школе, что, конечно же, не нравится его приемному отцу — невероятно честному человеку. И уж совсем тот не приходит в восторг, когда его родной сын возвращается из тюрьмы и сразу влипает в неприятности и долги. Всё это приводит к тому, что сводные братья пускаются в бега, а Элай прихватывает с собой инопланетное оружие, найденное им накануне в заброшенном доме.
Доп. информация: https://www.kinopoisk.ru/film/1000742/
Сэмпл: http://sendfile.su/1501911
Качество видео: HDRip найден в сети
Формат видео: AVI
Видео: 688x288 (2.39:1), 23.976 fps, XviD build 73 ~878 kbps avg, 0.19 bit/pixel
Аудио: 48 kHz, MPEG Layer 3, 2 ch, ~128.00 kbps avg

MediaInfo

General
Complete name : D:\Kin.2018.745MB.MegaPeer.avi
Format : AVI
Format/Info : Audio Video Interleave
File size : 745 MiB
Duration : 1h 42mn
Overall bit rate : 1 012 Kbps
Video
ID : 0
Format : MPEG-4 Visual
Format profile : Advanced Simple@L5
Format settings, BVOP : 1
Format settings, QPel : No
Format settings, GMC : No warppoints
Format settings, Matrix : Custom
Codec ID : XVID
Codec ID/Hint : XviD
Duration : 1h 42mn
Bit rate : 878 Kbps
Width : 688 pixels
Height : 288 pixels
Display aspect ratio : 2.40:1
Frame rate : 23.976 fps
Color space : YUV
Chroma subsampling : 4:2:0
Bit depth : 8 bits
Scan type : Progressive
Compression mode : Lossy
Bits/(Pixel*Frame) : 0.185
Stream size : 646 MiB (87%)
Writing library : XviD 73
Audio
ID : 1
Format : MPEG Audio
Format version : Version 1
Format profile : Layer 3
Codec ID : 55
Codec ID/Hint : MP3
Duration : 1h 42mn
Bit rate mode : Constant
Bit rate : 128 Kbps
Channel count : 2 channels
Sampling rate : 48.0 KHz
Compression mode : Lossy
Stream size : 94.2 MiB (13%)
Alignment : Aligned on interleaves
Interleave, duration : 167 ms (4.00 video frames)
Interleave, preload duration : 216 ms
Writing library : LAME3.99r
Encoding settings : -m s -V 4 -q 2 -lowpass 17 -b 128

Скриншот c названием фильма

Скриншоты

[opentorrent.pro].t3865.torrent 
Торрент: Зарегистрирован [ 2019-06-23 15:42 ] · 7A15E821EBEE6D0E2947B2E90C622FE7A566E392

Скачать .torrent

Скачать

15 KB

Статус: проверено
Скачан: 0 раз
Размер: 745 MB  ·  Тип торрента
terms.php
Профиль [ЛС]
Показать сообщения:    

Текущее время: 13-Июл 12:31

Часовой пояс: UTC ± 0



Вы не можете начинать темы
Вы не можете отвечать на сообщения
Вы не можете редактировать свои сообщения
Вы не можете удалять свои сообщения
Вы не можете голосовать в опросах
Вы не можете прикреплять файлы к сообщениям
Вы можете скачивать файлы