Статистика раздачи
Размер:  1,46 GB   |    Зарегистрирован:  1 год   |    Скачан:  0 раз
DL-List: Нет

Полного источника не было: Никогда

 
     
 
 

serzh ®

Пол:
Не указан
Стаж:
1 год 4 месяца
Сообщений:
442

Сокровище Рубиновых гор / Treasure of Ruby Hills
Страна: США
Студия: William F. Broidy Productions Inc.
Жанр: вестерн
Год выпуска: 1955
Продолжительность: 01:09:31
Перевод: Одноголосый закадровый - Алексей Alassea Крюков
Субтитры: русские (Свен Железнов)
Оригинальная аудиодорожка: английский
Режиссёр: Фрэнк МакДональд / Frank McDonald
В ролях: Захари Скотт, Кэрол Мэтьюз, Бартон МакЛейн, Дик Форан, Лола Олбрайт, Гордон Джонс, Реймонд Хаттон, Ли Ван Клиф, Стив Даррел, Чарльз Э. Фредерикс ...
Описание: Фильм снят по роману Луиса Ламура и повествует о непростом периоде становления городов на Диком Западе. Сын известного преступника хочет жить честно, но в то же время обеспеченно. Для этого он несколько лет готовится к поездке в город, в котором вместо закона правят главари враждующих кланов скотоводов. Задача, которую он решает, требует холодного расчета, быстрого револьвера и завидного терпения.--IMDbКиноПоиск--В появлении озвучки принимали участие хорошие люди из7букв Вестерн / группа Джесси Джеймса:
Станислав Вознесенский, Олег Галаган, Наталия Козырева, Эдуард Саухин, Наталья Беседина, Влад Дед, Егор Зайцев, Андрей Медведь, Артем Дробышев, Федор Смолов, Виктор Иванов, Станислав Лукашук, Алексей Смолин, Валера Журавлёв, Виктор Иванов, Олег Клименко, Виктор Диванов, Юрий Дмитриев, Сергей Лебедев, Олег Форсюк, Алексей Сарыков и Владислав Соловьёв.
Отдельная благодарностьAlassea за предоставленную русскую звуковую дорожку и субтитрыПеревод- Свен Железнов
Закадровый текст - Алексей Alassea Крюков
--Сэмпл: http://multi-up.com/1235241
Качество видео: DVDRip
Формат видео: AVI
Видео: XviD, 720x544 (1.32:1), 23.976 fps, 2583 Kbps
Аудио 1: AC3, 48.0 KHz, 2 ch., 192 Kbps, Русский
Аудио 2: AC3, 48.0 KHz, 2 ch., 224 Kbps, Английский

MediaInfo

Общее
Полное имя : Z:\РАЗДАЧИ\Treasure of Ruby Hills 1955\Treasure of Ruby Hills.avi
Формат : AVI
Формат/Информация : Audio Video Interleave
Размер файла : 1,46 Гбайт
Продолжительность : 1 ч. 9 м.
Общий поток : 3013 Кбит/сек
Программа кодирования : VirtualDubMod 1.5.10.3 | www.virtualdub-fr.org || (build 2550/release)
Библиотека кодирования : VirtualDubMod build 2550/release
Видео
Идентификатор : 0
Формат : MPEG-4 Visual
Профиль формата : Advanced Simple@L5
Параметр BVOP формата : Нет
Параметр QPel формата : Нет
Параметр GMC формата : Без точки перехода
Параметр матрицы формата : Выборочная
Идентификатор кодека : XVID
Идентификатор кодека/Подсказка : XviD
Продолжительность : 1 ч. 9 м.
Битрейт : 2583 Кбит/сек
Ширина : 720 пикселей
Высота : 544 пикселя
Соотношение сторон : 4:3
Частота кадров : 23,976 (24000/1001) кадра/сек
Цветовое пространство : YUV
Субдискретизация насыщенности : 4:2:0
Битовая глубина : 8 бит
Тип развёртки : Прогрессивная
Метод сжатия : С потерями
Бит/(Пиксели*Кадры) : 0.275
Размер потока : 1,25 Гбайт (86%)
Библиотека кодирования : XviD 1.2.1 (UTC 2008-12-04)
Аудио #1
Идентификатор : 1
Формат : AC-3
Формат/Информация : Audio Coding 3
Параметр Endianness формата : Big
Идентификатор кодека : 2000
Продолжительность : 1 ч. 9 м.
Вид битрейта : Постоянный
Битрейт : 192 Кбит/сек
Каналы : 2 канала
Расположение каналов : Front: L R
Частота : 48,0 КГц
Частота кадров : 31,250 кадров/сек (1536 spf)
Битовая глубина : 16 бит
Метод сжатия : С потерями
Размер потока : 95,5 Мбайт (6%)
Выравнивание : Разделение по промежуткам
Продолжительность промежутка : 42 мс. (1,00 видеокадр)
Время предзагрузки промежутка : 500 мс.
ServiceKind/String : Complete Main
Аудио #2
Идентификатор : 2
Формат : AC-3
Формат/Информация : Audio Coding 3
Параметр Endianness формата : Big
Идентификатор кодека : 2000
Продолжительность : 1 ч. 9 м.
Вид битрейта : Постоянный
Битрейт : 224 Кбит/сек
Каналы : 2 канала
Расположение каналов : Front: L R
Частота : 48,0 КГц
Частота кадров : 31,250 кадров/сек (1536 spf)
Битовая глубина : 16 бит
Метод сжатия : С потерями
Размер потока : 111 Мбайт (7%)
Выравнивание : Разделение по промежуткам
Продолжительность промежутка : 42 мс. (1,00 видеокадр)
Время предзагрузки промежутка : 500 мс.
ServiceKind/String : Complete Main

Фрагмент русских субтитров

296
00:22:36,143 --> 00:22:37,543
Кто этот счастливый пилигрим?
297
00:22:38,218 --> 00:22:39,218
Алан Доран.
298
00:22:39,907 --> 00:22:41,507
Помолвлен с мисс Вернон.
299
00:22:42,850 --> 00:22:43,850
Как давно он в Соледаде?
300
00:22:44,878 --> 00:22:46,545
Около 3 месяцев, полагаю.
301
00:22:47,534 --> 00:22:50,134
Он работает на Вернонов.
Старшим погонщиком.
302
00:22:50,578 --> 00:22:51,578
Старшим погонщиком?
303
00:22:52,470 --> 00:22:55,170
Первый старший погонщик,
на моей памяти, без мозолей на руках.
304
00:23:06,480 --> 00:23:07,480
Эммет!
305
00:23:10,481 --> 00:23:11,481
Чего тут разнюхиваешь?
306
00:23:12,328 --> 00:23:14,895
Меня прислали найти тебя. Доран узнал об
убийстве Картера.
307
00:23:15,783 --> 00:23:18,983
- Многие об этом знают.
- Он хочет видеть тебя. Сейчас.
308
00:23:19,538 --> 00:23:20,538
Насчет Картера?
309
00:23:20,908 --> 00:23:22,775
Сказал: он не знал об убийстве.
310
00:23:23,029 --> 00:23:25,462
Возможно, в Рубиновых горах слишком много
боссов.
311
00:23:25,701 --> 00:23:27,568
Скоро останется только один.
312
00:23:27,612 --> 00:23:28,612
Доран. И он ждёт тебя.
313
00:23:36,754 --> 00:23:39,154
Я не знал об убийстве Картера. Кто
приказал?
314
00:23:39,225 --> 00:23:40,225
Рейнольдс.
315
00:23:41,308 --> 00:23:42,308
Зачем?
[opentorrent.pro].t3866.torrent 
Торрент: Зарегистрирован [ 2019-06-23 15:42 ] · 992B9FCB462AE2002D7389E42B2950CB5DC02ECF

Скачать .torrent

Скачать

15 KB

Статус: проверено
Скачан: 0 раз
Размер: 1,46 GB  ·  Тип торрента
terms.php
Профиль [ЛС]
Показать сообщения:    

Текущее время: 13-Июл 12:14

Часовой пояс: UTC ± 0



Вы не можете начинать темы
Вы не можете отвечать на сообщения
Вы не можете редактировать свои сообщения
Вы не можете удалять свои сообщения
Вы не можете голосовать в опросах
Вы не можете прикреплять файлы к сообщениям
Вы можете скачивать файлы