Статистика раздачи
Размер:  1,46 GB   |    Зарегистрирован:  1 год   |    Скачан:  0 раз
DL-List: Нет

Полного источника не было: Никогда

 
     
 
 

солнышко ®

Пол:
Не указан
Стаж:
1 год 4 месяца
Сообщений:
723

Во время грозы / Durante la tormenta
Год выпуска: 2018
Страна: Испания
Жанр: триллер, драма, фэнтези, детектив
Продолжительность: 02:09:14
Перевод: Любительский (многоголосый, закадровый) | HDRezka Studio
Cубтитры: нет
Режиссёр: Ориол Паоло / Oriol Paulo
В ролях: Адриана Угарте, Чино Дарин, Хавьер Гутьеррес, Альваро Морте, Нора Навас, Микель Фернандес, Клара Сегура, Мима Риера, Айна Клотет, Альберт Перес
Описание: Счастливая женщина Вера с мужем и маленькой дочкой переезжает в новый дом. А там во время сильной грозы происходит смещение временных пластов, в результате чего женщина пытается спасти от гибели мальчика, жившего тут 25 лет назад. Но этот акт доброй воли приводит к тому, что Вера оказывается в изменённом настоящем, в котором супруг её не знает, и её собственная дочь не родилась.
Доп. информация:
Кинопоиск
Сэмпл: http://multi-up.com/1235258
Автор - Scarabey
Качество видео: WEB-DLRip
Формат видео: AVI
Видео: 720x304 (2.37:1), 24 fps, XviD build 73 ~1422 kbps avg, 0.27 bit/pixel
Аудио: 48 kHz, AC3 Dolby Digital, 2/0 (L,R) ch, ~192 kbps

MediaInfo

Durante.La.Tormenta.2018_WEB-DLRip_hdr_scarabey.avi
Format : AVI
Format/Info : Audio Video Interleave
File size : 1.46 GiB
Duration : 2h 9mn
Overall bit rate : 1 623 Kbps
Writing application : VirtualDubMod 1.5.10.2 (build 2540/release)
Writing library : VirtualDubMod build 2540/release
Video
Format : MPEG-4 Visual
Format profile : Streaming Video@L1
Format settings, BVOP : Yes
Format settings, QPel : No
Format settings, GMC : No warppoints
Format settings, Matrix : Custom
Codec ID : XVID
Codec ID/Hint : XviD
Duration : 2h 9mn
Bit rate : 1 422 Kbps
Width : 720 pixels
Height : 304 pixels
Display aspect ratio : 2.35
Frame rate : 24.000 fps
Resolution : 24 bits
Colorimetry : 4:2:0
Scan type : Progressive
Bits/(Pixel*Frame) : 0.271
Stream size : 1.28 GiB (88%)
Writing library : XviD 73
Audio
Format : AC-3
Format/Info : Audio Coding 3
Codec ID : 2000
Duration : 2h 8mn
Bit rate mode : Constant
Bit rate : 192 Kbps
Channel(s) : 2 channels
Channel positions : L R
Sampling rate : 48.0 KHz
Stream size : 177 MiB (12%)
Alignment : Aligned on interleaves
Interleave, duration : 42 ms (1.00 video frame)
Interleave, preload duration : 512 ms

Скриншоты

[opentorrent.pro].t3871.torrent 
Торрент: Зарегистрирован [ 2019-06-23 15:42 ] · DF358565511EEAFDF9F760E5FB4345193A1EF7AC

Скачать .torrent

Скачать

15 KB

Статус: проверено
Скачан: 0 раз
Размер: 1,46 GB  ·  Тип торрента
terms.php
Профиль [ЛС]
Показать сообщения:    

Текущее время: 13-Июл 10:58

Часовой пояс: UTC ± 0



Вы не можете начинать темы
Вы не можете отвечать на сообщения
Вы не можете редактировать свои сообщения
Вы не можете удалять свои сообщения
Вы не можете голосовать в опросах
Вы не можете прикреплять файлы к сообщениям
Вы можете скачивать файлы