Статистика раздачи
Размер:  2,17 GB   |    Зарегистрирован:  1 год   |    Скачан:  0 раз
DL-List: Нет

Полного источника не было: Никогда

 
     
 
 

Гость ®

Пол:
Не указан

Снегоуборщик / Cold Pursuit- Год выпуска: 2019
Страна: Великобритания, Норвегия, Канада, США, Франция
Жанр: боевик, триллер, драма, криминал
Продолжительность: 01:59:00
Перевод: Профессиональный (дублированный)
Субтитры: русские (полные), английские (полные)
Оригинальная аудиодорожка: английский-Режиссер: Ханс Петтер Муланд / Hans Petter Moland-В ролях: Лиам Нисон, Лора Дерн, Эмми Россум, Том Бейтман, Уильям Форсайт, Джулия Джонс, Дэвид О`Хара, Доменик Ломбардоззи, Элисия Ротару, Эмили Мэддисон, Майкл Нисон, Майкл Эклунд, Брэдли Страйкер, Уэсли МакИннес.-Описание: Мистер Коксман — примерный семьянин и уважаемый гражданин, размеренная жизнь которого заканчивается, когда наркоторговцы убивают его сына. В поисках справедливости он с ледяным хладнокровием начинает изощренно убирать бандитов одного за другим...-Рейтинг
kinopoisk.ru 6.059 (8861)
imdb.com 6.20 (29 251)
-Качество видео: BDRip-AVC (исходник: Cold.Pursuit.2019.BDREMUX.1080p.seleZen)
Формат видео: MKV | Sample
Видео: 1024x428 (2.40:1), 23.976 fps, x264@L4.1 ~1784 kbps avg, 0.17 bit/pixel
Аудио 1: 48 kHz, AC3 Dolby Digital, 3/2 (L,C,R,l,r) + LFE ch, ~384.00 kbps avg | RUS
Аудио 2: 48 kHz, AC3 Dolby Digital, 3/2 (L,C,R,l,r) + LFE ch, ~448.00 kbps avg | ENG

Инфо

Формат : Matroska
Версия формата : Version 4
Размер файла : 2,17 Гбайт
Продолжительность : 1 ч. 59 м.
Общий поток : 2615 Кбит/сек
Название фильма : Снегоуборщик / Cold Pursuit / 2019
Дата кодирования : UTC 2019-06-23 11:30:52
Программа кодирования : mkvmerge v34.0.0 ('Sight and Seen') 32-bit
Библиотека кодирования : libebml v1.3.7 + libmatroska v1.5.0
Видео
Идентификатор : 1
Формат : AVC
Формат/Информация : Advanced Video Codec
Профиль формата : High@L4.1
Настройки формата : CABAC / 10 Ref Frames
Параметр CABAC формата : Да
Параметр RefFrames формата : 10 кадров
Идентификатор кодека : V_MPEG4/ISO/AVC
Продолжительность : 1 ч. 59 м.
Битрейт : 1784 Кбит/сек
Ширина : 1024 пикселя
Высота : 428 пикселей
Соотношение сторон : 2,40:1
Режим частоты кадров : Постоянный
Частота кадров : 23,976 (24000/1001) кадра/сек
Цветовое пространство : YUV
Субдискретизация насыщенности : 4:2:0
Битовая глубина : 8 бит
Тип развёртки : Прогрессивная
Бит/(Пиксели*Кадры) : 0.170
Размер потока : 1,48 Гбайт (68%)
Заголовок : BDRip-AVC
Библиотека кодирования : x264 core 146 r2538 121396c
Настройки программы : cabac=1 / ref=10 / deblock=1:-3:-3 / analyse=0x3:0x113 / me=umh / subme=11 / psy=1 / psy_rd=0.99:0.04 / mixed_ref=1 / me_range=48 / chroma_me=1 / trellis=2 / 8x8dct=1 / cqm=0 / deadzone=21,11 / fast_pskip=1 / chroma_qp_offset=-3 / threads=6 / lookahead_threads=1 / sliced_threads=0 / nr=0 / decimate=1 / interlaced=0 / bluray_compat=0 / constrained_intra=0 / bframes=11 / b_pyramid=2 / b_adapt=2 / b_bias=0 / direct=3 / weightb=1 / open_gop=0 / weightp=2 / keyint=240 / keyint_min=23 / scenecut=40 / intra_refresh=0 / rc_lookahead=40 / rc=2pass / mbtree=0 / bitrate=1784 / ratetol=1.0 / qcomp=0.60 / qpmin=0 / qpmax=69 / qpstep=4 / cplxblur=20.0 / qblur=0.5 / vbv_maxrate=50000 / vbv_bufsize=62500 / nal_hrd=none / filler=0 / ip_ratio=1.40 / pb_ratio=1.30 / aq=1:1.00
Язык : English
Default : Да
Forced : Нет
Аудио #1
Идентификатор : 2
Формат : AC-3
Формат/Информация : Audio Coding 3
Коммерческое название : Dolby Digital
Идентификатор кодека : A_AC3
Продолжительность : 1 ч. 58 м.
Вид битрейта : Постоянный
Битрейт : 384 Кбит/сек
Каналы : 6 каналов
ChannelLayout : L R C LFE Ls Rs
Частота : 48,0 КГц
Частота кадров : 31,250 кадров/сек (1536 SPF)
Битовая глубина : 16 бит
Метод сжатия : С потерями
Размер потока : 327 Мбайт (15%)
Заголовок : Dub
Язык : Russian
ServiceKind/String : Complete Main
Default : Да
Forced : Нет
Аудио #2
Идентификатор : 3
Формат : AC-3
Формат/Информация : Audio Coding 3
Коммерческое название : Dolby Digital
Идентификатор кодека : A_AC3
Продолжительность : 1 ч. 59 м.
Вид битрейта : Постоянный
Битрейт : 448 Кбит/сек
Каналы : 6 каналов
ChannelLayout : L R C LFE Ls Rs
Частота : 48,0 КГц
Частота кадров : 31,250 кадров/сек (1536 SPF)
Битовая глубина : 16 бит
Метод сжатия : С потерями
Размер потока : 381 Мбайт (17%)
Заголовок : Original
Язык : English
ServiceKind/String : Complete Main
Default : Нет
Forced : Нет
Текст #1
Идентификатор : 4
Формат : UTF-8
Идентификатор кодека : S_TEXT/UTF8
Идентификатор кодека/Информация : UTF-8 Plain Text
Продолжительность : 1 ч. 49 м.
Битрейт : 62 бит/сек
ElementCount : 979
Размер потока : 50,3 Кбайт (0%)
Заголовок : Full
Язык : Russian
Default : Нет
Forced : Нет
Текст #2
Идентификатор : 5
Формат : UTF-8
Идентификатор кодека : S_TEXT/UTF8
Идентификатор кодека/Информация : UTF-8 Plain Text
Продолжительность : 1 ч. 47 м.
Битрейт : 40 бит/сек
ElementCount : 968
Размер потока : 31,9 Кбайт (0%)
Заголовок : Full
Язык : English
Default : Нет
Forced : Нет
Меню
00:00:00.000 : en:Chapter 1
00:07:26.946 : en:Chapter 2
00:13:19.257 : en:Chapter 3
00:21:35.211 : en:Chapter 4
00:29:35.649 : en:Chapter 5
00:38:18.880 : en:Chapter 6
00:45:11.876 : en:Chapter 7
00:53:08.310 : en:Chapter 8
01:01:23.513 : en:Chapter 9
01:05:46.359 : en:Chapter 10
01:14:04.857 : en:Chapter 11
01:22:21.186 : en:Chapter 12
01:31:40.954 : en:Chapter 13
01:38:46.879 : en:Chapter 14
01:45:20.939 : en:Chapter 15
01:47:43.540 : en:Chapter 16

Скриншоты

[opentorrent.pro].t3890.torrent 
Торрент: Зарегистрирован [ 2019-06-24 16:08 ] · 5C36DEA3F783137AB1C3E48ACB0F64FAF3B1296C

Скачать .torrent

Скачать

11 KB

Статус: проверено
Скачан: 0 раз
Размер: 2,17 GB  ·  Тип торрента
terms.php
Показать сообщения:    

Текущее время: 08-Июл 07:41

Часовой пояс: UTC ± 0



Вы не можете начинать темы
Вы не можете отвечать на сообщения
Вы не можете редактировать свои сообщения
Вы не можете удалять свои сообщения
Вы не можете голосовать в опросах
Вы не можете прикреплять файлы к сообщениям
Вы можете скачивать файлы