Статистика раздачи
Размер:  745 MB   |    Зарегистрирован:  1 год   |    Скачан:  0 раз
DL-List: Нет
Сидов:  7  [  0 KB/s  ]   Личеров:  1  [  0 KB/s  ]  
 
     
 
 

солнышко ®

Пол:
Не указан
Стаж:
1 год 3 месяца
Сообщений:
723

Выжившие / Hostile
Страна: Франция
Жанр: ужасы, драма
Год выпуска: 2017
Продолжительность: 01:23:13
Перевод: Профессиональный (многоголосый закадровый) iTunes
Субтитры: нет
Режиссер: Матьё Тури / Mathieu Turi
В ролях: Бриттани Эшворт
Грегори Фетусси
Хавьер Ботет
Джей Бенедикт
Дэвид Гасман
Лаура Д’Ариста
Карл Гаррисон
Мохамед Арусси
Ричард Мейман
Атон
Описание: После апокалипсиса, когда большая часть населения Земли была уничтожена, появились ОНИ. Их назвали Выжившими. Никто не знает, живы они или мертвы, из этого мира или нет. Но теперь это их мир. Они здесь охотники, а люди — их добыча. Джулиет одна из своей группы рискует отправиться в покинутый людьми город на поиски пищи. Её путь будет долгим, он лежит через неизведанные опасные земли, и до наступления темноты она не успеет вернуться в лагерь.
Доп. информация: https://www.kinopoisk.ru/film/939770/
Сэмпл: http://sendfile.su/1502151
Качество видео: HDRip найден в сети
Формат видео: AVI
Видео: 720x304 (2.37:1), 23.976 fps, XviD build 73 ~1118 kbps avg, 0.21 bit/pixel
Аудио: 48 kHz, MPEG Layer 3, 2 ch, ~128.00 kbps avg

MediaInfo

General
Complete name : D:\Hostile.2017.BDRip.745MB.P.MegaPeer.avi
Format : AVI
Format/Info : Audio Video Interleave
File size : 745 MiB
Duration : 1h 23mn
Overall bit rate : 1 252 Kbps
Video
ID : 0
Format : MPEG-4 Visual
Format profile : Advanced Simple@L5
Format settings, BVOP : 1
Format settings, QPel : No
Format settings, GMC : No warppoints
Format settings, Matrix : Custom
Codec ID : XVID
Codec ID/Hint : XviD
Duration : 1h 23mn
Bit rate : 1 118 Kbps
Width : 720 pixels
Height : 304 pixels
Display aspect ratio : 2.35:1
Frame rate : 23.976 fps
Color space : YUV
Chroma subsampling : 4:2:0
Bit depth : 8 bits
Scan type : Progressive
Compression mode : Lossy
Bits/(Pixel*Frame) : 0.213
Stream size : 665 MiB (89%)
Writing library : XviD 73
Audio
ID : 1
Format : MPEG Audio
Format version : Version 1
Format profile : Layer 3
Codec ID : 55
Codec ID/Hint : MP3
Duration : 1h 23mn
Bit rate mode : Constant
Bit rate : 128 Kbps
Channel count : 2 channels
Sampling rate : 48.0 KHz
Compression mode : Lossy
Stream size : 76.2 MiB (10%)
Alignment : Aligned on interleaves
Interleave, duration : 167 ms (4.00 video frames)
Interleave, preload duration : 216 ms
Writing library : LAME3.99r
Encoding settings : -m s -V 4 -q 2 -lowpass 17 -b 128

Скриншот c названием фильма

Скриншоты

[opentorrent.pro].t3897.torrent 
Торрент: Зарегистрирован [ 2019-06-24 16:08 ] · 2384E3C1F447987562CF51F004788D18363AA964

Скачать .torrent

Скачать

15 KB

Статус: проверено
Скачан: 0 раз
Размер: 745 MB  ·  Тип торрента
terms.php
Профиль [ЛС]
Показать сообщения:    

Текущее время: 04-Июл 18:56

Часовой пояс: UTC ± 0



Вы не можете начинать темы
Вы не можете отвечать на сообщения
Вы не можете редактировать свои сообщения
Вы не можете удалять свои сообщения
Вы не можете голосовать в опросах
Вы не можете прикреплять файлы к сообщениям
Вы можете скачивать файлы