Статистика раздачи
Размер:  1,46 GB   |    Зарегистрирован:  1 год   |    Скачан:  0 раз
DL-List: Нет
Сидов:  2  [  0 KB/s  ]  
 
     
 
 

солнышко ®

Пол:
Не указан
Стаж:
1 год 3 месяца
Сообщений:
723

Простите за беспокойство / Sorry to Bother You
Страна: США
Жанр: фантастика, фэнтези, комедия
Год выпуска: 2018
Продолжительность: 01:50:47-Перевод: Профессиональный (дублированный) | iTunes
Субтитры: русские (forced)
Оригинальная аудиодорожка: нет-Режиссер: Бутс Райли / Boots Riley-В ролях: Лейкит Стэнфилд, Тесса Томпсон, Жермен Фаулер, Омари Хардвик, Терри Крюс, Кейт Берлант, Майкл И. Соммерс, Дэнни Гловер, Стивен Юн, Арми Хаммер-Описание: Темнокожий житель Окленда Кассиус Грин живет в гараже у родного дяди, которого со дня на день могут лишить жилья за долги, поэтому парень устраивается туда, куда берут всех — в колл-центр. Обзванивая потенциальных покупателей, Кассиус сталкивается с тотальным безразличием, когда получает совет от бывалого коллеги использовать так называемый «белый голос». С этого момента его продажи растут, и жизнь меняется, но в это время недовольные системой оплаты коллеги решают устроить забастовку и основать профсоюз.- -Качество видео: BDRip | Sorry.to.Bother.You.2018.BluRay.1080p.AVC.DTS-HD.MA5.1-MT
Формат видео: AVI
Видео: 720x304 (2.37:1), 23.976 fps, XviD build 73 ~1494 kbps avg, 0.28 bit/pixel
Аудио: 48 kHz, AC3 Dolby Digital, 3/2 (L,C,R,l,r) + LFE ch, ~384 kbps-Сэмпл-

MediaInfo

Код:Формат : AVI
Формат/Информация : Audio Video Interleave
Размер файла : 1,46 Гбайт
Продолжительность : 1 ч. 50 м.
Общий поток : 1887 Кбит/сек
Название фильма : Простите за беспокойство_2018_BDRip
Программа кодирования : VirtualDubMod 1.5.10.3 | www.virtualdub-fr.org || (build 2550/release)
Авторское право : порошков
Видео
Идентификатор : 0
Формат : MPEG-4 Visual
Профиль формата : Advanced Simple@L5
Настройки формата : BVOP1 / Custom Matrix
Параметр BVOP формата : 1
Параметр QPel формата : Нет
Параметр GMC формата : Без точки перехода
Параметр матрицы формата : Выборочная
Идентификатор кодека : XVID
Идентификатор кодека/Подсказка : XviD
Продолжительность : 1 ч. 50 м.
Битрейт : 1494 Кбит/сек
Ширина : 720 пикселей
Высота : 304 пикселя
Соотношение сторон : 2,35:1
Частота кадров : 23,976 (24000/1001) кадра/сек
Цветовое пространство : YUV
Субдискретизация насыщенности : 4:2:0
Битовая глубина : 8 бит
Тип развёртки : Прогрессивная
Метод сжатия : С потерями
Бит/(Пиксели*Кадры) : 0.285
Размер потока : 1,16 Гбайт (79%)
Библиотека кодирования : XviD 73
Аудио
Идентификатор : 1
Формат : AC-3
Формат/Информация : Audio Coding 3
Коммерческое название : Dolby Digital
Идентификатор кодека : 2000
Продолжительность : 1 ч. 50 м.
Вид битрейта : Постоянный
Битрейт : 384 Кбит/сек
Каналы : 6 каналов
ChannelLayout : L R C LFE Ls Rs
Частота : 48,0 КГц
Частота кадров : 31,250 кадров/сек (1536 SPF)
Битовая глубина : 16 бит
Метод сжатия : С потерями
Размер потока : 304 Мбайт (20%)
Выравнивание : Разделение по промежуткам
Продолжительность промежутка : 42 мс. (1,00 видеокадр)
Время предзагрузки промежутка : 500 мс.
ServiceKind/String : Complete Main

Скриншоты


[opentorrent.pro].t3902.torrent 
Торрент: Зарегистрирован [ 2019-06-25 16:34 ] · 4D1DE0C5D2201BA2CC9B56B41B8B4CE26A96D7AD

Скачать .torrent

Скачать

15 KB

Статус: проверено
Скачан: 0 раз
Размер: 1,46 GB  ·  Тип торрента
terms.php
Профиль [ЛС]
Показать сообщения:    

Текущее время: 02-Июл 09:27

Часовой пояс: UTC ± 0



Вы не можете начинать темы
Вы не можете отвечать на сообщения
Вы не можете редактировать свои сообщения
Вы не можете удалять свои сообщения
Вы не можете голосовать в опросах
Вы не можете прикреплять файлы к сообщениям
Вы можете скачивать файлы