Статистика раздачи
Размер:  1,46 GB   |    Зарегистрирован:  1 год   |    Скачан:  0 раз
DL-List: Нет

Полного источника не было: Никогда

 
     
 
 

serzh ®

Пол:
Не указан
Стаж:
1 год 4 месяца
Сообщений:
442

СтражДух-хранительОпекунThe Guardian Страна: США
Жанр: ужасы
Год выпуска: 1990
Продолжительность: 01:32:28-Перевод: Профессиональный (многоголосый закадровый) ТВ3
Субтитры: нет
Оригинальная аудиодорожка: нет-Режиссер: Уильям Фридкин / William Friedkin
В ролях: Дуайр Браун, Кэри Лоуэлл, Дженни Сигроув, Мигель Феррер, Ксандер Беркли, Наталия Ногулич, Тереза Рэндл, Брэд Холл, Гэри Суонсон, Фрэнк Нун-Описание: Молодые родители Кейт и Фил переезжают в Лос-Анджелес, где Фил получил новую престижную работу. Для помощи с ребенком Кейт решает нанять няню, и выбор родителей падает на молодую и квалифицированную девушку Камиллу. Вскоре новая няня становится незаменимым помощником и почти членом семьи. Однако с ее появлением в доме у Фила начинаются ночные кошмары. Постепенно Камилла становится все ближе к своим работодателям, которые безоговорочно доверяют ей своего ребенка, не подозревая, что Камилла связана с древним магическим культом, который поклоняется деревьям-Доп. информация: Озвучка на трекере появляется впервые
Сэмпл: 1минута51сек-Качество видео: BDRip (спасибо Sem-te)
Формат видео: AVI
Видео: XVID, 704x384, 1,85:1, 23,976 кадра/сек, 2055 Кбит/сек
Аудио: AC-3, 48,0 КГц, 192 Кбит/сек, 2 канала (многоголосый ТВ3)

MediaInfo

Общее
Полное имя : Страж.1990.BDRip.avi
Формат : AVI
Формат/Информация : Audio Video Interleave
Размер файла : 1,46 Гбайт
Продолжительность : 1 ч. 32 м.
Общий поток : 2256 Кбит/сек
Программа кодирования : VirtualDubMod 1.10.5ru (build 2550/release)
Библиотека кодирования : VirtualDubMod build 2550/release
Видео
Идентификатор : 0
Формат : MPEG-4 Visual
Профиль формата : Advanced Simple@L5
Настройки формата : BVOP1 / Custom Matrix
Параметр BVOP формата : 1
Параметр QPel формата : Нет
Параметр GMC формата : Без точки перехода
Параметр матрицы формата : Выборочная
Идентификатор кодека : XVID
Идентификатор кодека/Подсказка : XviD
Продолжительность : 1 ч. 32 м.
Битрейт : 2055 Кбит/сек
Ширина : 704 пикселя
Высота : 384 пикселя
Соотношение сторон : 1,85:1
Частота кадров : 23,976 (24000/1001) кадра/сек
Частота кадров в оригинале : 23,976 (23976/1000) кадра/сек
Цветовое пространство : YUV
Субдискретизация насыщенности : 4:2:0
Битовая глубина : 8 бит
Тип развёртки : Прогрессивная
Метод сжатия : С потерями
Бит/(Пиксели*Кадры) : 0.317
Размер потока : 1,33 Гбайт (91%)
Библиотека кодирования : XviD 73
Аудио
Идентификатор : 1
Формат : AC-3
Формат/Информация : Audio Coding 3
Коммерческое название : Dolby Digital
Идентификатор кодека : 2000
Продолжительность : 1 ч. 32 м.
Вид битрейта : Постоянный
Битрейт : 192 Кбит/сек
Каналы : 2 канала
ChannelLayout : L R
Частота : 48,0 КГц
Частота кадров : 31,250 кадров/сек (1536 SPF)
Битовая глубина : 16 бит
Метод сжатия : С потерями
Размер потока : 127 Мбайт (9%)
Выравнивание : Разделение по промежуткам
Продолжительность промежутка : 42 мс. (1,00 видеокадр)
Время предзагрузки промежутка : 500 мс.
Заголовок : многоголосый ТВ3
ServiceKind/String : Complete Main

Скриншоты



[opentorrent.pro].t3911.torrent 
Торрент: Зарегистрирован [ 2019-06-25 16:34 ] · FC3F817BB0FAAD6EBAF7893E08A81B1FFB930C3D

Скачать .torrent

Скачать

15 KB

Статус: проверено
Скачан: 0 раз
Размер: 1,46 GB  ·  Тип торрента
terms.php
Профиль [ЛС]
Показать сообщения:    

Текущее время: 16-Июл 14:31

Часовой пояс: UTC ± 0



Вы не можете начинать темы
Вы не можете отвечать на сообщения
Вы не можете редактировать свои сообщения
Вы не можете удалять свои сообщения
Вы не можете голосовать в опросах
Вы не можете прикреплять файлы к сообщениям
Вы можете скачивать файлы