Статистика раздачи
Размер:  1,78 GB   |    Зарегистрирован:  1 год   |    Скачан:  0 раз
DL-List: Нет

Полного источника не было: Никогда

 
     
 
 

солнышко ®

Пол:
Не указан
Стаж:
1 год 3 месяца
Сообщений:
723

Жизнь возможна / La vita possibile
Страна: Италия
Жанр: драма
Год выпуска: 2016
Продолжительность: 01:42:33
Перевод: Любительский (двухголосый закадровый) Владислав Данилов, Алена Соколова
Субтитры: русские
Оригинальная аудиодорожка: итальянский
Режиссер: Ивано Де Маттео / Ivano De Matteo
В ролях: Андреа Питторино / Andrea Pittorino, Маргерита Буй / Margherita Buy, Валерия Голино / Valeria Golino, Eugenio Gradabosco, Katsiaryna Shulha, Бруно Тодескини / Bruno Todeschini и др.
Описание: Анна вместе с 13-летним сыном Валерио уходит от мужа-тирана, не в силах больше терпеть его оскорбления и переезжает из Рима в Турин. Там они находят приют в небольшой квартирке бывшей театральной актрисы и пытаются начать новую жизнь.
Доп. информация: https://www.imdb.com/title/tt5247720/
Внимание! Присутствует ненормативная лексика!
Перевод - Элла Психоделика 2019
Озвучание - Владислав Данилов и Алёна Соколова 2019
Cведение звука - Diablo
Сэмпл: http://multi-up.com/1235421
Качество видео: DVDRip
Формат видео: AVI
Видео: XviD, 720x304 (2.35:1), 25.000 fps, 1584 kbps
Аудио: AC3, 48000 Hz, 6 ch, 448 kbps (русский)
Аудио 2: AC3, 48000 Hz, 6 ch, 448 kbps (итальянский, отдельно)
Формат субтитров: softsub (SRT)

MediaInfo

General
Complete name : I:\Рутрекер\Жизнь возможна\La vita possibile (2016).avi
Format : AVI
Format/Info : Audio Video Interleave
File size : 1.46 GiB
Duration : 1h 42mn
Overall bit rate : 2 042 Kbps
Writing application : VirtualDubMod 1.5.10.3 | www.virtualdub-fr.org || (build 2550/release)
Writing library : VirtualDubMod build 2550/release
Video
ID : 0
Format : MPEG-4 Visual
Format profile : Advanced Simple@L5
Format settings, BVOP : 1
Format settings, QPel : No
Format settings, GMC : No warppoints
Format settings, Matrix : Default (MPEG)
Codec ID : XVID
Codec ID/Hint : XviD
Duration : 1h 42mn
Bit rate : 1 584 Kbps
Width : 720 pixels
Height : 304 pixels
Display aspect ratio : 2.35:1
Frame rate : 25.000 fps
Color space : YUV
Chroma subsampling : 4:2:0
Bit depth : 8 bits
Scan type : Progressive
Compression mode : Lossy
Bits/(Pixel*Frame) : 0.290
Stream size : 1.13 GiB (78%)
Writing library : XviD 1.2.1 (UTC 2008-12-04)
Audio
ID : 1
Format : AC-3
Format/Info : Audio Coding 3
Mode extension : CM (complete main)
Format settings, Endianness : Big
Codec ID : 2000
Duration : 1h 42mn
Bit rate mode : Constant
Bit rate : 448 Kbps
Channel(s) : 6 channels
Channel positions : Front: L C R, Side: L R, LFE
Sampling rate : 48.0 KHz
Bit depth : 16 bits
Compression mode : Lossy
Stream size : 329 MiB (22%)
Alignment : Split accross interleaves
Interleave, duration : 40 ms (1.00 video frame)
Interleave, preload duration : 500 ms

Скриншот c названием фильма

Скриншоты


[opentorrent.pro].t3913.torrent 
Торрент: Зарегистрирован [ 2019-06-25 16:34 ] · D83259104C6C94BBE1C8E3D81177C7B611DEBBEA

Скачать .torrent

Скачать

18 KB

Статус: проверено
Скачан: 0 раз
Размер: 1,78 GB  ·  Тип торрента
terms.php
Профиль [ЛС]
Показать сообщения:    

Текущее время: 04-Июл 18:19

Часовой пояс: UTC ± 0



Вы не можете начинать темы
Вы не можете отвечать на сообщения
Вы не можете редактировать свои сообщения
Вы не можете удалять свои сообщения
Вы не можете голосовать в опросах
Вы не можете прикреплять файлы к сообщениям
Вы можете скачивать файлы