Статистика раздачи
Размер:  1,45 GB   |    Зарегистрирован:  1 год   |    Скачан:  0 раз
DL-List: Нет

Полного источника не было: Никогда

 
     
 
 

serzh ®

Пол:
Не указан
Стаж:
1 год 3 месяца
Сообщений:
442

Мститель / Истребитель / The Exterminator
Страна: США
Жанр: Боевик
Год выпуска: 1980
Продолжительность: 01:42:08
Перевод: Авторский (одноголосый закадровый) Максим Ошурков
Субтитры: нет
Режиссер: Джеймс Гликенхаус / James Glickenhaus
В ролях: Кристофер Джордж, Саманта Эггар, Роберт Гинти, Стив Джеймс, Тони ДиБенедетто, Дик
Боччелли, Патрик Фаррелли, Мишель Хэррел, Дэвид Липман, Синди Уилкс
Описание: Когда Майкла Джефферсона грабят и калечат, его лучший друг Джон Истланд решает
принять меры. Джефферсон спас жизнь Истланда во Вьетнаме, и теперь Истланд хочет отомстить
за друга. Используя свой армейский опыт, он отправляется в крестовый поход, чтобы очистить
улицы Нью-Йорка.
Доп. информация: Дорожка с М. Ошурковым синхронизирована и наложена ale_x2008 при помощи Sony Vegas и VirtualDubMod.
За оцифрованную с VHS дорожку благодарим - Mixa_12345_mixa
P.S. 01:07:36 - 01:07:43, 01:36:44 - 01:38:50 - вставки с переводом Ю. Товбина.

Релиз
Сэмпл: https://yadi.sk/i/HawbBIZr7T027Q
Качество видео: HDRip
Формат видео: AVI
Видео: XviD build 73, 720x400 (1.80:1), 23.976 fps, 1830 kbps avg, 0.27 bit/pixel
Аудио: AC3 Dolby Digital, 48000Hz 2/0 (L,R) ch (mono), 192 kbps avg

MediaInfo

Мститель (The Exterminator) [by ale_X2008].avi
Format : AVI
Format/Info : Audio Video Interleave
File size : 1.45 GiB
Duration : 1 h 42 min
Overall bit rate : 2 032 kb/s
Movie name : Мститель (The Exterminator) [by ale_X2008]
Director : by ale_X2008
Writing application : VirtualDubMod 1.5.10.3 (build 2550/release)
Copyright : Edich2
Comment : RUTracker.org
Video
ID : 0
Format : MPEG-4 Visual
Format profile : Advanced Simple@L5
Format settings : BVOP1 / Custom Matrix
Format settings, BVOP : 1
Format settings, QPel : No
Format settings, GMC : No warppoints
Format settings, Matrix : Custom
Codec ID : XVID
Codec ID/Hint : XviD
Duration : 1 h 42 min
Bit rate : 1 831 kb/s
Width : 720 pixels
Height : 400 pixels
Display aspect ratio : 16:9
Frame rate : 23.976 (24000/1001) FPS
Color space : YUV
Chroma subsampling : 4:2:0
Bit depth : 8 bits
Scan type : Progressive
Compression mode : Lossy
Bits/(Pixel*Frame) : 0.265
Stream size : 1.31 GiB (90%)
Writing library : XviD 73
Audio
ID : 1
Format : AC-3
Format/Info : Audio Coding 3
Codec ID : 2000
Duration : 1 h 42 min
Bit rate mode : Constant
Bit rate : 192 kb/s
Channel(s) : 2 channels
Channel positions : Front: L R
Sampling rate : 48.0 kHz
Frame rate : 31.250 FPS (1536 SPF)
Bit depth : 16 bits
Compression mode : Lossy
Stream size : 140 MiB (9%)
Alignment : Split accross interleaves
Interleave, duration : 42 ms (1.00 video frame)
Interleave, preload duratio : 500 ms
Service kind : Complete Main

Скриншоты


[opentorrent.pro].t3915.torrent 
Торрент: Зарегистрирован [ 2019-06-25 16:34 ] · D54BC3A31BB3681B537D9BF1C258E2E28042D657

Скачать .torrent

Скачать

15 KB

Статус: проверено
Скачан: 0 раз
Размер: 1,45 GB  ·  Тип торрента
terms.php
Профиль [ЛС]
Показать сообщения:    

Текущее время: 07-Июл 05:33

Часовой пояс: UTC ± 0



Вы не можете начинать темы
Вы не можете отвечать на сообщения
Вы не можете редактировать свои сообщения
Вы не можете удалять свои сообщения
Вы не можете голосовать в опросах
Вы не можете прикреплять файлы к сообщениям
Вы можете скачивать файлы